Михаил Булгаков - Проклятие мастера [2012, Документально-постановочный, биография, SATRip]


Статистика раздачи [Обновить пиров]
Размер:  543 MB   |    Зарегистрирован:  1 год   |    Скачан:  0 раз

Полного источника не было: Никогда

 
   
 
 
 

[Цитировать]

Михаил Булгаков - Проклятие мастера
Год выпуска: 2012
Страна: Россия
Жанр: Документально-постановочный, биография
Продолжительность: 00:45:33
Перевод: Не требуется
Телеканал: ТВ3
Описание: Михаил Булгаков. Он был признан великим писателем, а его книги стали достоянием мировой литературы. Но мало кто знает, что вся жизнь Булгакова прошла под знаком проклятия. Писатель точно знал, когда и какой будет его смерть. Он умрет так же, как и его отец. Афанасий Булгаков скончался от болезни почек. Диагноз редкий - нефросклероз. Именно тогда в жизни Булгакова появились ночные страхи, боязнь открытого пространства, мысли о долгой мучительной смерти... Писатель пристрастился к морфию. Наркотики разрушили его брак, обрекли на мучительные головные боли, которые сопровождали его всю жизнь. Постоянными спутниками Булгакова стали резкие перепады настроения, тяжелейшие депрессии и жуткие приступы страха, с которыми он так и не справился до конца своих дней... Гений и наркоман. Любимец женщин и жестокий деспот. Известный писатель и жертва государственной машины.

6 малоизвестных фактов о Михаиле Булгакове

1. О продаже души
Известно, что Булгаков часто ходил в Большой, чтобы послушать «Фауста». Эта опера всегда поднимала ему настроение. Особенно ему был близок образ самого Фауста. Но однажды Булгаков вернулся из театра мрачный, в состоянии тяжелейшей депрессии. Это было связано с произведением, над которым писатель недавно начал работать, — пьесой «Батум». Согласившийся написать пьесу о Сталине Булгаков узнал себя в образе Фауста, продавшего душу дьяволу.
2. Отсутствующий персонаж
В 1937 году, в годовщину смерти А .С. Пушкина, несколько авторов представили пьесы, посвященные поэту. Среди них была и пьеса М. А. Булгакова «Александр Пушкин», которую отличало от произведений других авторов отсутствие одного персонажа. Булгаков считал, что появление этого действующего лица на сцене будет вульгарно и безвкусно. Отсутствующим персонажем был сам Александр Сергеевич.
3. Клад
В романе «Белая гвардия» Булгаков довольно точно описал дом, в котором он жил в Киеве. А хозяева этого дома за одну деталь описания очень крепко невзлюбили писателя, так как она принесла прямой ущерб строению. Дело в том, что хозяева разломали все стены, стараясь найти клад, описанный в романе, и, конечно же, ничего не нашли.
4. История Воланда
Воланд Булгакова получил своё имя от гётевского Мефистофеля. В поэме «Фауст» оно звучит всего один раз, когда Мефистофель просит нечистую силу расступиться и дать ему дорогу: «Дворянин Воланд идёт!» В старинной немецкой литературе чёрта называли ещё одним именем — Фаланд. Оно возникает и в «Мастере и Маргарите», когда служащие варьете не могут вспомнить имя мага: «...может быть, Фаланд?»
В первой редакции произведения содержалось детальное описание (15 рукописных страниц) примет Воланда, когда он впервые появляется под видом «незнакомца». Это описание сейчас почти полностью утрачено. Кроме того, в ранней редакции Воланда звали Астарот (один из самых высокопоставленных демонов ада, согласно западной демонологии). Позже Булгаков заменил его, – видимо, потому, что этот образ не мог быть тождественным сатане.
5. Кто такой Шариков?
Традиционно повесть «Собачье сердце» трактуют только в одном политическом ключе: Шариков — аллегория люмпен-пролетариата, неожиданно для себя получившего множество прав и свобод, но быстро обнаружившего при этом эгоизм и желание уничтожать себе подобных. Однако есть и другая интерпретация, будто бы эта повесть была политической сатирой на руководство государства середины 1920-х годов. В частности, что Шариков-Чугункин — это Сталин (у обоих «железная» вторая фамилия), проф. Преображенский — это Ленин (преобразивший страну), его ассистент доктор Борменталь, постоянно конфликтующий с Шариковым — это Троцкий (Бронштейн), Швондер — Каменев, ассистентка Зина — Зиновьев, Дарья — Дзержинский и т. д.
6. Прототип Бегемота
У знаменитого помощника Воланда существовал реальный прототип, только в жизни он был вовсе не котом, а собакой — черным псом Михаила Афанасьевича по кличке Бегемот. Собака эта была очень умна. Однажды, когда Булгаков праздновал со своей женой Новый год, после боя курантов его собака пролаяла 12 раз, хотя её никто этому не учил.
Доп. информация: Rip by shibay9
качество: SATRip
формат: AVI
видео кодек: XviD
аудио кодек: MP3
Видео: MPEG-4 Visual, 704 x 368 (1.913), 1530 Kbps, 25.000 fps
Аудио: MPEG Audio, 2 ch, 128 Kbps, 48.0 KHz

MediaInfo

Format : AVIFormat/Info : Audio Video InterleaveFile size : 543 MiBDuration : 45mn 33sOverall bit rate : 1 668 KbpsWriting application : VirtualDubMod 1.5.10.3 | www.virtualdub-fr.org || (build 2550/release)Writing library : VirtualDub build 32507/release
VideoID : 0Format : MPEG-4 VisualFormat profile : Advanced Simple@L5Format settings, BVOP : 2Format settings, QPel : NoFormat settings, GMC : No warppointsFormat settings, Matrix : Default (H.263)Codec ID : DX50Codec ID/Hint : DivX 5Duration : 45mn 33sBit rate : 1 530 KbpsWidth : 704 pixelsHeight : 368 pixelsDisplay aspect ratio : 1.913Frame rate : 25.000 fpsColor space : YUVChroma subsampling : 4:2:0Bit depth : 8 bitsScan type : ProgressiveCompression mode : LossyBits/(Pixel*Frame) : 0.236Stream size : 499 MiB (92%)Writing library : XviD 64
AudioID : 1Format : MPEG AudioFormat version : Version 1Format profile : Layer 3Codec ID : 55Codec ID/Hint : MP3Duration : 45mn 33sBit rate mode : ConstantBit rate : 128 KbpsChannel(s) : 2 channelsSampling rate : 48.0 KHzCompression mode : LossyStream size : 41.7 MiB (8%)Alignment : Aligned on interleavesInterleave, duration : 40 ms (1.00 video frame)Interleave, preload duration : 504 msWriting library : L3.99rEncoding settings : -m s -V 4 -q 0 -lowpass 17 -b 128

Скриншоты

Не забывай говорить "Спасибо"
Пожалуйста не уходите с раздачи!
[teatrix.ru].t11299.torrent 
Торрент: Зарегистрирован [ 2015-12-07 13:40 ] · 3E5990F20E76B4F35521CEFBCB9FC0A520E7B79E

Скачать .torrent

Скачать

11 KB

Статус: проверено
Скачан: 0 раз
Размер: 543 MB
terms.php



Быстрый ответ

Имя:

      
Для отправки сообщений необходимо включить JavaScript
Показать сообщения:    

Текущее время: 11-Дек 13:00

Часовой пояс: UTC + 3


Вы можете начинать темы
Вы можете отвечать на сообщения
Вы не можете редактировать свои сообщения
Вы не можете удалять свои сообщения
Вы не можете голосовать в опросах
Вы не можете прикреплять файлы к сообщениям
Вы можете скачивать файлы