Мой сосед Михаил Булгаков (3 серии из 3) (Владимир Мелетин) [2012, Биография, культура, HDTVRip]


Статистика раздачи [Обновить пиров]
Размер:  1.03 GB   |    Зарегистрирован:  1 год   |    Скачан:  0 раз

Полного источника не было: Никогда

 
   
 
 
 

[Цитировать]

Мой сосед Михаил Булгаков (3 серии из 3)
Год выпуска: 2012
Страна: Россия
Жанр: Биография, культура
Продолжительность: 3 x ~ 00:25:00
Перевод: Не требуется
Режиссер: Владимир Мелетин
Телеканал: Культура
Описание: В одном из арбатских переулков – Нащокинском – когда-то находился дом 3/5. Он был известен, прежде всего, тем, что в нём располагался первый писательский кооператив. Из этого дома забирали Мандельштама. Сюда заходила в гости к семейству Ардовых Анна Ахматова. Здесь цокала каблучками по тогда еще булыжной мостовой юная Белла Ахмадулина, в те годы жена писателя Юрия Нагибина. Раз в году переулок наполнялся невиданными советскими гражданами «иномарками» – в день рождения супруги американского корреспондента Генри Шапиро. А в 56-м медленно поднимались по здешним бесконечным лестницам люди-тени – некогда жившие здесь «политические» начали возвращаться из лагерей… Когда же в 1966 году вышел журнал «Москва» с романом «Мастер и Маргарита», дом загудел, как улей: «Кто? Когда? Здесь?» Да, именно в этом доме Булгаков писал свой «роман века» и здесь закончилась его жизнь. Но здесь же началась и жизнь режиссера-документалиста Владимира Мелетина. Документальный сериал «Мой сосед Булгаков» – это не просто хроника дома в Нащокинском, а личный рассказ автора о родном доме, который волею судьбы и истории стал одной из вех отечественной культуры.

6 малоизвестных фактов о Михаиле Булгакове

1. О продаже души
Известно, что Булгаков часто ходил в Большой, чтобы послушать «Фауста». Эта опера всегда поднимала ему настроение. Особенно ему был близок образ самого Фауста. Но однажды Булгаков вернулся из театра мрачный, в состоянии тяжелейшей депрессии. Это было связано с произведением, над которым писатель недавно начал работать, — пьесой «Батум». Согласившийся написать пьесу о Сталине Булгаков узнал себя в образе Фауста, продавшего душу дьяволу.
2. Отсутствующий персонаж
В 1937 году, в годовщину смерти А .С. Пушкина, несколько авторов представили пьесы, посвященные поэту. Среди них была и пьеса М. А. Булгакова «Александр Пушкин», которую отличало от произведений других авторов отсутствие одного персонажа. Булгаков считал, что появление этого действующего лица на сцене будет вульгарно и безвкусно. Отсутствующим персонажем был сам Александр Сергеевич.
3. Клад
В романе «Белая гвардия» Булгаков довольно точно описал дом, в котором он жил в Киеве. А хозяева этого дома за одну деталь описания очень крепко невзлюбили писателя, так как она принесла прямой ущерб строению. Дело в том, что хозяева разломали все стены, стараясь найти клад, описанный в романе, и, конечно же, ничего не нашли.
4. История Воланда
Воланд Булгакова получил своё имя от гётевского Мефистофеля. В поэме «Фауст» оно звучит всего один раз, когда Мефистофель просит нечистую силу расступиться и дать ему дорогу: «Дворянин Воланд идёт!» В старинной немецкой литературе чёрта называли ещё одним именем — Фаланд. Оно возникает и в «Мастере и Маргарите», когда служащие варьете не могут вспомнить имя мага: «...может быть, Фаланд?»
В первой редакции произведения содержалось детальное описание (15 рукописных страниц) примет Воланда, когда он впервые появляется под видом «незнакомца». Это описание сейчас почти полностью утрачено. Кроме того, в ранней редакции Воланда звали Астарот (один из самых высокопоставленных демонов ада, согласно западной демонологии). Позже Булгаков заменил его, – видимо, потому, что этот образ не мог быть тождественным сатане.
5. Кто такой Шариков?
Традиционно повесть «Собачье сердце» трактуют только в одном политическом ключе: Шариков — аллегория люмпен-пролетариата, неожиданно для себя получившего множество прав и свобод, но быстро обнаружившего при этом эгоизм и желание уничтожать себе подобных. Однако есть и другая интерпретация, будто бы эта повесть была политической сатирой на руководство государства середины 1920-х годов. В частности, что Шариков-Чугункин — это Сталин (у обоих «железная» вторая фамилия), проф. Преображенский — это Ленин (преобразивший страну), его ассистент доктор Борменталь, постоянно конфликтующий с Шариковым — это Троцкий (Бронштейн), Швондер — Каменев, ассистентка Зина — Зиновьев, Дарья — Дзержинский и т. д.
6. Прототип Бегемота
У знаменитого помощника Воланда существовал реальный прототип, только в жизни он был вовсе не котом, а собакой — черным псом Михаила Афанасьевича по кличке Бегемот. Собака эта была очень умна. Однажды, когда Булгаков праздновал со своей женой Новый год, после боя курантов его собака пролаяла 12 раз, хотя её никто этому не учил.
Доп. информация: Релиз группы - R.G.DaVinci
качество: HDTVRip
формат: AVI
видео кодек: XviD
аудио кодек: AC3
Видео: MPEG-4 Visual, 704 x 528 (1.333), 1665 Kbps, 25.000 fps
Аудио: AC3, 2 ch, 192 Kbps, 48.0 KHz

MediaInfo

Format : AVIFormat/Info : Audio Video InterleaveFile size : 351 MiBDuration : 26mn 19sOverall bit rate : 1 867 KbpsWriting application : VirtualDubMod 1.5.10.3 | www.virtualdub-fr.org || (build 2550/release)Writing library : VirtualDubMod build 2550/release
VideoID : 0Format : MPEG-4 VisualFormat profile : Advanced Simple@L5Format settings, BVOP : 1Format settings, QPel : NoFormat settings, GMC : No warppointsFormat settings, Matrix : CustomCodec ID : XVIDCodec ID/Hint : XviDDuration : 26mn 19sBit rate : 1 665 KbpsWidth : 704 pixelsHeight : 528 pixelsDisplay aspect ratio : 4:3Frame rate : 25.000 fpsColor space : YUVChroma subsampling : 4:2:0Bit depth : 8 bitsScan type : ProgressiveCompression mode : LossyBits/(Pixel*Frame) : 0.179Stream size : 313 MiB (89%)Writing library : XviD 64
AudioID : 1Format : AC-3Format/Info : Audio Coding 3Mode extension : CM (complete main)Format settings, Endianness : BigCodec ID : 2000Duration : 26mn 19sBit rate mode : ConstantBit rate : 192 KbpsChannel(s) : 2 channelsChannel positions : Front: L RSampling rate : 48.0 KHzBit depth : 16 bitsCompression mode : LossyStream size : 36.1 MiB (10%)Alignment : Split accross interleavesInterleave, duration : 40 ms (1.00 video frame)Interleave, preload duration : 500 ms

Скриншоты

Не забывай говорить "Спасибо"
Пожалуйста не уходите с раздачи!
[teatrix.ru].t11300.torrent 
Торрент: Зарегистрирован [ 2015-12-07 13:40 ] · 4FEE67B725314DD961040F74A9FF7C00C6D9DCB8

Скачать .torrent

Скачать

11 KB

Статус: проверено
Скачан: 0 раз
Размер: 1.03 GB
terms.php



Быстрый ответ

Имя:

      
Для отправки сообщений необходимо включить JavaScript
Показать сообщения:    

Текущее время: 10-Дек 04:13

Часовой пояс: UTC + 3


Вы можете начинать темы
Вы можете отвечать на сообщения
Вы не можете редактировать свои сообщения
Вы не можете удалять свои сообщения
Вы не можете голосовать в опросах
Вы не можете прикреплять файлы к сообщениям
Вы можете скачивать файлы