Фотограф прекрасных женщин: Эрвин Блюменфельд / The Man Who Shot Beautiful Women (Реми Блюменфелд / Remy Blumenfeld) [2013, Документальный, биография, TVRip] Rus Sub


Статистика раздачи [Обновить пиров]
Размер:  686 MB   |    Зарегистрирован:  1 год   |    Скачан:  0 раз

Полного источника не было: Никогда

 
   
 
 
 

[Цитировать]

Фотограф прекрасных женщин: Эрвин Блюменфельд
/ The Man Who Shot Beautiful Women: Erwin Blumenfeld

Год выпуска: 2013
Страна: Великобритания
Жанр: Документальный, биография
Продолжительность: 00:59:13
Перевод: Субтитры
Русские субтитры: есть
Оригинальная аудиодорожка: английский
Режиссер: Реми Блюменфелд / Remy Blumenfeld
Телеканал: Аруц 8 (Израиль)
Описание: Знаменитый немецкий фотограф Эрвин Блюменфельд сотрудничал с самыми популярными модными журналами «Harper`s Bazaar» и «Vogue». Он плодотворно и очень успешно работал в мире моды и рекламы до середины 1950-х годов. Лучше всего работу фотографа характеризует его же труднопереводимый афоризм «Beauty is not pretty» («Красивое не значит хорошенькое»). Этот девиз не потерял своей актуальности и много десятилетий спустя. После своей таинственной смерти самый высокооплачиваемый фотограф в мире оставил знаменитые снимки "Глаз лани", "Девушка на Эйфелевой башне", "Девушка в мокром шелке", "Грейс Келли в золотой раме". Особенность Блюменфельда в умении создавать удивительные образы. Он был одержим красивыми женщинами, что привело к сложностям в его личной жизни. Наследие Эрвина Блюменфельда - 30 тысяч негативов, 8000 черно-белых снимков и десятки фильмов о моде. Большинство его работ так и не были выставлены. Эрвина Блюменфельда возвышает над временем то, что красота по-прежнему прекрасна, как и 70 лет назад. Ему удалось определить красоту и женщину 20 века.
Доп. информация: Запись с канала "Аруц 8". Фильм на английском языке с двойными субтитрами (вшитыми) на русском языке и иврите. Перевод на русский язык: Ольга Еленицкая. Субтитры: Дори Медиа от ЛТД.
Сэмпл: https://yadi.sk/i/vmzItOz1Vuec2
качество: TVRip
формат: AVI
Видео: 1481 Кbps, 704х432 (1.630), 25.000 fps, MPEG-4 Visual (XviD)(Advanced Simple@L5)(BVOP2)
Аудио: 128 Kbps,48.0 KHz, 2 сhannels, MPEG Audio (MP3) (Version 1)(Layer 3)(Joint stereo)

MediaInfo

GeneralComplete name : C:\Documents and Settings\User\Desktop\The Man Who Shot Beautiful Women.aviFormat : AVIFormat/Info : Audio Video InterleaveFile size : 686 MiBDuration : 59mn 13sOverall bit rate : 1 618 KbpsWriting library : VirtualDub-MPEG2 build 24600/release
VideoID : 0Format : MPEG-4 VisualFormat profile : Advanced Simple@L5Format settings, BVOP : YesFormat settings, QPel : NoFormat settings, GMC : No warppointsFormat settings, Matrix : Default (MPEG)Codec ID : XVIDCodec ID/Hint : XviDDuration : 59mn 13sBit rate : 1 481 KbpsWidth : 704 pixelsHeight : 432 pixelsDisplay aspect ratio : 1.630Frame rate : 25.000 fpsColor space : YUVChroma subsampling : 4:2:0Bit depth : 8 bitsScan type : ProgressiveBits/(Pixel*Frame) : 0.195Stream size : 627 MiB (91%)Writing library : XviD 58
AudioID : 1Format : MPEG AudioFormat version : Version 1Format profile : Layer 3Mode : Joint stereoMode extension : MS StereoCodec ID : 55Codec ID/Hint : MP3Duration : 59mn 13sBit rate mode : ConstantBit rate : 128 KbpsChannel(s) : 2 channelsSampling rate : 48.0 KHzStream size : 54.2 MiB (8%)Alignment : Split accross interleavesInterleave, duration : 40 ms (1.00 video frame)Interleave, preload duration : 500 ms

Скриншоты


[teatrix.ru].t11301.torrent 
Торрент: Зарегистрирован [ 2015-12-07 13:40 ] · 55664354543660D7967D3488B0394E11F023B38D

Скачать .torrent

Скачать

1 KB

Статус: проверено
Скачан: 0 раз
Размер: 686 MB
terms.php



Быстрый ответ

Имя:

      
Для отправки сообщений необходимо включить JavaScript
Показать сообщения:    

Текущее время: 10-Дек 00:17

Часовой пояс: UTC + 3


Вы можете начинать темы
Вы можете отвечать на сообщения
Вы не можете редактировать свои сообщения
Вы не можете удалять свои сообщения
Вы не можете голосовать в опросах
Вы не можете прикреплять файлы к сообщениям
Вы можете скачивать файлы