Звездные войны Владимира Челомея [30/06/2014, Документальный, SATRip]


Статистика раздачи [Обновить пиров]
Размер:  520 MB   |    Зарегистрирован:  11 месяцев 27 дней   |    Скачан:  0 раз

Полного источника не было: Никогда

 
   
 
 
 

[Цитировать]

Звездные войны Владимира Челомея
Дата/Год выпуска: 30/06/2014
Страна: Россия
Жанр: Документальный
Продолжительность: 00:44:22
Перевод: Не требуется
Телеканал: ВГТРК
Описание: "Сегодня, 25 июня 1974 года, в СССР осуществлен запуск ракеты-носителя Протон, которая вывела на орбиту советскую научную космическую станцию "Салют-3". Это сообщение ТАСС было опубликовано во всех газетах, передано по радио и телевидению. Правду о том, что было запущено на орбиту, знали только специалисты, Генеральный штаб вооруженных сил и Пентагон.
Тяжелая стратегическая межконтинентальная ракета вывела в космос боевую разведывательную орбитальную станцию "Алмаз" для проведения пробных стрельб из бортового орудия. Это и сегодня звучит как фантастика. Но конструктор этой станции и этой ракеты, дважды Герой Социалистического труда, лауреат Ленинской и Государственных премий, академик Владимир Николаевич Челомей, умел удивлять и свою страну, и мир.
Владимир Челомей. Его называли и жестким прагматиком, и безумным фантазером. В плеяде советских ракетно-космических конструкторов Челомей оказался самым молодым, самым амбициозным и самым малоизвестным. Лишь некоторые сегодня знают о том, что он создал легендарную ракету-носитель "Протон", и это, пожалуй, все. Иногда еще говорят о войне конструкторов космической техники, в которой принимал участие Челомей, да и то на уровне слухов.
На самом деле Челомей – это крылатые ракеты для военно-морского флота и стратегической авиации, баллистические ракеты вооруженные ядерными боеголовками, легкие космические самолеты и военные орбитальные станции, многоразовые космические корабли, маневрирующие в космосе ядерные боеголовки и даже космический десант, который можно доставить в любую точку планеты за 90 минут, прыгнув на специальном десантном корабле через ближний космос.
Своим единственным настоящим противником Владимир Челомей считал всю ракетно-ядерную мощь США. Ни больше ни меньше. Посвятив свою жизнь победе именно над этим противником, он это противостояние выиграл.
В нашем фильме мы покажем уникальное и единственное интервью, которое телевидению разрешили записать за год до смерти Владимира Челомея, встретимся с его дочерью, поговорим с его ближайшими соратниками, которые все как один называют Генерального конструктора Владимира Челомея гениальным конструктором.
Все, что происходит на Планете – войны, передвижения террористических групп, катастрофы – все может быть под контролем. И мы можем и должны создать такую программу.
Космос не цель, космос - это средство, единственный способ взять под полный контроль всю планету Земля, чтобы исключить даже малейшую возможность ядерной войны.
качество: SATRip
формат: AVI
Видео: 720x400 (1.80:1), 25 fps, XviD build 50 ~1499 kbps avg, 0.21 bit/pixel
Аудио: 48 kHz, MPEG Layer 3, 2 ch, ~128.00 kbps avg

MediaInfo

I:\Звездные войны Владимира Челомея\Zvezdnye.vojny.Vladimira.Chelomeja.avi General Complete name : I:\Звездные войны Владимира Челомея\Zvezdnye.vojny.Vladimira.Chelomeja.avi Format : AVI Format/Info : Audio Video Interleave File size : 520 MiB Duration : 44mn 22s Overall bit rate : 1 638 Kbps Writing application : VirtualDubMod 1.5.10.3 | www.virtualdub-fr.org || (build 2550/release) Writing library : VirtualDubMod build 2550/release Video #0 ID : 0 Format : MPEG-4 Visual Format profile : Advanced Simple@L5 Format settings, BVOP : 2 Format settings, QPel : No Format settings, GMC : No warppoints Format settings, Matrix : Default (H.263) Codec ID : XVID Codec ID/Hint : XviD Duration : 44mn 22s Bit rate : 1 500 Kbps Width : 720 pixels Height : 400 pixels Display aspect ratio : 16:9 Frame rate : 25.000 fps Color space : YUV Chroma subsampling : 4:2:0 Bit depth : 8 bits Scan type : Progressive Compression mode : Lossy Bits/(Pixel*Frame) : 0.208 Stream size : 476 MiB (92%) Writing library : XviD 1.2.1 (UTC 2008-12-04) Audio #1 ID : 1 Format : MPEG Audio Format version : Version 1 Format profile : Layer 3 Mode : Joint stereo Mode extension : MS Stereo Codec ID : 55 Codec ID/Hint : MP3 Duration : 44mn 22s Bit rate mode : Constant Bit rate : 128 Kbps Channel count : 2 channels Sampling rate : 48.0 KHz Compression mode : Lossy Stream size : 40.6 MiB (8%) Alignment : Aligned on interleaves Interleave, duration : 40 ms (1.00 video frame) Interleave, preload duration : 504 ms Writing library : LAME3.99r Encoding settings : -m j -V 4 -q 9 -lowpass 17 -b 128

Скриншоты

[teatrix.ru].t11305.torrent 
Торрент: Зарегистрирован [ 2015-12-07 13:40 ] · E72B94CB7F6620ECE3B18A3EA303CFBA301A4ED0

Скачать .torrent

Скачать

11 KB

Статус: проверено
Скачан: 0 раз
Размер: 520 MB
terms.php



Быстрый ответ

Имя:

      
Для отправки сообщений необходимо включить JavaScript
Показать сообщения:    

Текущее время: 03-Дек 22:47

Часовой пояс: UTC + 3


Вы можете начинать темы
Вы можете отвечать на сообщения
Вы не можете редактировать свои сообщения
Вы не можете удалять свои сообщения
Вы не можете голосовать в опросах
Вы не можете прикреплять файлы к сообщениям
Вы можете скачивать файлы