Истинный Леонардо /Inside The Mind Of LEONARDO [Культура 23.06.2014] (Джулиан Джонс/Julian Joes и Энди Роббинс/Andy Robbins) [2012 г., Документальный, SATRip]


Статистика раздачи [Обновить пиров]
Размер:  1.23 GB   |    Зарегистрирован:  1 год 1 месяц   |    Скачан:  0 раз

Полного источника не было: Никогда

 
   
 
 
 

[Цитировать]

Истинный Леонардо /Inside The Mind Of LEONARDO
Год выпуска: 2012 г.
Страна: Великобритания
Жанр: Документальный
Продолжительность: 01:28:41
Перевод: Профессиональный, двухголосый
Русские субтитры: нет
Режиссёры: Джулиан Джонс/Julian Jones и Энди Роббинс/Andy Robbins
Производство: "HANDEL Productions"
Описание: Фильм посвящен малоизвестным страницам жизни и творчества Леонардо да Винчи. Основанный на личных дневниках художника, он раскрывает нам многогранный образ живописца, скульптора, ученого, инженера и увлеченного исследователя. Создатель бессмертной "Моны Лизы", "Тайной вечери" и других прославленных произведений, занимался проектированием и изготовлением оружия, исследованиями в области анатомии человека, инженерными работами по конструированию разнообразных машин. Его записи хранят много тайн, связанных с его искусством и его внутренним миром.
Качество: SATRip
Формат: AVI
Видео: 720x400 (1.80:1), 50 fps, XviD ~1833 kbps, 0.27 bit/pixel
Аудио: 48 kHz, MPEG Layer 3, 2 ch, ~128 kbps avg

MediaInfo:

Общее
Полное имя : D:\Torrents\Istinnyj_Leonardo_23.06.2014_(Kul'tura)_.avi
Формат : AVI
Формат/Информация : Audio Video Interleave
Размер файла : 1,23 Гбайт
Продолжительность : 1 ч. 28 м.
Общий поток : 1980 Кбит/сек
Программа кодирования : VirtualDubMod 1.6.0.0 SURROUND (build 2560/release)
Библиотека кодирования : VirtualDubMod build 2560/release
Видео
Идентификатор : 0
Формат : MPEG-4 Visual
Профиль формата : Advanced Simple@L5
Параметр BVOP формата : 2
Параметр QPel формата : Нет
Параметр GMC формата : Без точки перехода
Параметр матрицы формата : Default (MPEG)
Идентификатор кодека : XVID
Идентификатор кодека/Подсказка : XviD
Продолжительность : 1 ч. 28 м.
Битрейт : 1833 Кбит/сек
Ширина : 720 пикселей
Высота : 400 пикселей
Соотношение сторон : 5:4
Соотношение сторон в оригинале : 16:9
Частота кадров : 50,000 кадров/сек
Цветовое пространство : YUV
Субдискретизация насыщенности : 4:2:0
Битовая глубина : 8 бит
Тип развёртки : Прогрессивная
Метод сжатия : С потерями
Бит/(Пиксели*Кадры) : 0.127
Размер потока : 1,14 Гбайт (93%)
Библиотека кодирования : XviD 1.2.1 (UTC 2008-12-04)
Аудио
Идентификатор : 1
Формат : MPEG Audio
Версия формата : Version 1
Профиль формата : Layer 3
Режим : Joint stereo
Расширение режима : MS Stereo
Идентификатор кодека : 55
Идентификатор кодека/Подсказка : MP3
Продолжительность : 1 ч. 28 м.
Вид битрейта : Постоянный
Битрейт : 128 Кбит/сек
Каналы : 2 канала
Частота : 48,0 КГц
Метод сжатия : С потерями
Размер потока : 81,2 Мбайт (6%)
Выравнивание : Разделение по промежуткам
Продолжительность промежутка : 20 мс. (1,00 видеокадр)
Время предзагрузки промежутка : 500 мс.
Библиотека кодирования : LAME3.99r
Настройки программы : -m j -V 4 -q 3 -lowpass 17 -b 128
сэмпл видео:">

Скриншоты (превью, увеличение по клику): сэмпл видео:


https://yadi.sk/i/TlQ8FLlcUiZdp
На раздаче круглосуточно, ~20 Mb/s. > [Что от меня зависит, сделал. Остальное зависит от Вас, трекера и наших провайдеров.]
[teatrix.ru].t11307.torrent 
Торрент: Зарегистрирован [ 2015-12-07 13:40 ] · 8E3F17C65667B276C93243C038579DDB4ED3C1AE

Скачать .torrent

Скачать

13 KB

Статус: проверено
Скачан: 0 раз
Размер: 1.23 GB
terms.php



Быстрый ответ

Имя:

      
Для отправки сообщений необходимо включить JavaScript
Показать сообщения:    

Текущее время: 18-Янв 00:25

Часовой пояс: UTC + 3


Вы можете начинать темы
Вы можете отвечать на сообщения
Вы не можете редактировать свои сообщения
Вы не можете удалять свои сообщения
Вы не можете голосовать в опросах
Вы не можете прикреплять файлы к сообщениям
Вы можете скачивать файлы