[TR24][SM][OF] Busoni, Berg, Zemlinsky, Webern - Lieder - Katrien Baerts, Reinbert de Leeuw & Het Collectief - 2014 (Classical)


Статистика раздачи [Обновить пиров]
Размер:  320 MB   |    Зарегистрирован:  11 месяцев 27 дней   |    Скачан:  0 раз

Полного источника не было: Никогда

 
   
 
 
 

[Цитировать]

Busoni, Berg, Zemlinsky, Webern - Lieder / Katrien Baerts, Reinbert de Leeuw & Het Collectief
Формат записи/Источник записи: [TR24][SM][OF]
Наличие водяных знаков: Нет
Издание: ZZT 345
Год издания/переиздания диска: 2014
Жанр: Vocal Music
Издатель(лейбл): Zig-Zag Territoires
Продолжительность: 00:50:57
Наличие сканов в содержимом раздачи: Да
Треклист:
Ferruccio Busoni (1866 – 1924)
1 Berceuse Elégiaque Opus 42 (1909) 8’28
(arr. A. Schönberg - 1920)
for 2 Violins, Alto, Cello, Double Bass,
Harmonium, Piano, Flute and Clarinet
Alban Berg (1885 – 1935)
Sieben frühe Lieder (1905-1908) (arr. Reinbert de Leeuw) 13’44
for Soprano, 2 Violins, Alto, Cello,
Double Bass, Harmonium, Piano,
Flute and Clarinet
2 Nacht 3’52
3 Schilflied 1’55
4 Die Nachtigall 2’04
5 Traumgekrönt 2’32
6 Im Zimmer 1’14
7 Liebesode 1’45
8 Sommertage 1’42
Alexander von Zemlinsky (1871 – 1942)
Sechs Gesänge nach Maeterlinck Opus 13 (1913) 17’23
for Soprano, 2 Violins, Alto, Cello,
Double Bass, Harmonium, Piano,
Flute and Clarinet
9 Die drei Schwestern (arr. Reinbert De Leeuw) 3’31
10 Die Mädchen mit den verbundenen Augen (arr. Erwin Stein) 2’47
11 Lied der Jungfrau (arr. Leonard Stein) 2’09
12 Als ihr Geliebter schied (arr. Leonard Stein) 1’50
13 Und kehrt er einst heim (arr. Erwin Stein) 3’06
14 Sie kam zum Schloss gegangen (arr. Reinbert De Leeuw) 4’00
Anton Webern (1883 – 1945)
15 Passacaglia Opus 1 (1908) (arr. R. De Leeuw) 15’04
for 2 Violins, Alto, Cello, Double Bass,
Harmonium, Piano, Flute, Clarinet
and Oboe
Контейнер: FLAC (*.flac)
Тип рипа: tracks
Разрядность: 24/44,1
Формат: WAV (flac.ape.wv)
Количество каналов: 2.0
Источник (релизер): http://www.qobuz.com/gb-en/album/berg-zemlinsky-lie...uw/3760009293458

Состав

Het Collectief
Katrien Baerts, soprano
Reinbert de Leeuw, conductor

Об исполнителе (группе)

Het Collectief
Wibert Aerts, Violin
Vincent Hepp, Violin
Florian Peelman, Alto
Martijn Vink, Cello
Odile Simon, Double Bass
Dirk Luijmes, Harmonium
Thomas Dieltjens, Piano
Toon Fret, Flute
Nele Delafonteyne, Clarinet
Piet Van Bockstal, Oboe

Dynamic Range Meter

foobar2000 1.2.6 / Dynamic Range Meter 1.1.1
log date: 2015-01-08 20:41:20
--------------------------------------------------------------------------------
Analyzed: Het Collectief
Reinbert de Leeuw, Conductor
Anton Webern, Composer / Katrien Baerts - Het Collectief - Reinbert de Leeuw : Berg & Zemlinsky : Lieder (1)
Het Collectief
Reinbert de Leeuw, Conductor
Ferruccio Busoni, Composer / Katrien Baerts - Het Collectief - Reinbert de Leeuw : Berg & Zemlinsky : Lieder (2)
Katrien Baerts, Soprano
Het Collectief
Reinbert de Leeuw, Conductor
Alban Berg, Composer / Katrien Baerts - Het Collectief - Reinbert de Leeuw : Berg & Zemlinsky : Lieder (3-9)
Katrien Baerts, Soprano
Het Collectief
Reinbert de Leeuw, Conductor
Alexander Zemlinsky, Composer / Katrien Baerts - Het Collectief - Reinbert de Leeuw : Berg & Zemlinsky : Lieder (10-15)
--------------------------------------------------------------------------------
DR Peak RMS Duration Track
--------------------------------------------------------------------------------
DR13 -0.21 dB -19.49 dB 9:45 15-Passacaglia, Op. 1:Passacaglia, Op. 1 (Arr. Reinbert de Leeuw)
DR16 -7.08 dB -30.28 dB 8:38 01-Berceuse élégiaque, Op. 42:Berceuse élégiaque, Op. 42, BV 252a (Arr. Arnold Schönberg)
DR13 -1.56 dB -24.01 dB 3:52 02-Sieben frühe Lieder:I. Nacht (Arr. Reinbert de Leeuw)
DR12 -4.03 dB -23.02 dB 1:55 03-Sieben frühe Lieder:II. Schilflied (Arr. Reinbert de Leeuw)
DR12 -0.21 dB -19.50 dB 2:04 04-Sieben frühe Lieder:III. Die Nachtigall (Arr. Reinbert de Leeuw)
DR12 -4.47 dB -23.45 dB 2:32 05-Sieben frühe Lieder:IV. Traumgekrönt (Arr. Reinbert de Leeuw)
DR12 -3.08 dB -23.04 dB 1:14 06-Sieben frühe Lieder:V. Im Zimmer (Arr. Reinbert de Leeuw)
DR13 -2.14 dB -21.55 dB 1:45 07-Sieben frühe Lieder:VI. Liebesode (Arr. Reinbert de Leeuw)
DR11 -0.92 dB -18.62 dB 1:42 08-Sieben frühe Lieder:VII. Sommertage (Arr. Reinbert de Leeuw)
DR13 -0.21 dB -20.09 dB 3:31 09-Sechs Gesänge nach Maeterlinck, Op. 13:I. Die drei Schwestern (Arr. Reinbert de Leeuw)
DR18 -0.81 dB -25.13 dB 2:47 10-Sechs Gesänge nach Maeterlinck, Op. 13:II. Die Mädchen mit den verbundenen Augen (Arr. Erwin Stein)
DR11 -8.35 dB -26.66 dB 2:09 11-Sechs Gesänge nach Maeterlinck, Op. 13:III. Lied der Jungfrau (Arr. Leonard Stein)
DR12 -4.36 dB -23.72 dB 1:50 12-Sechs Gesänge nach Maeterlinck, Op. 13:IV. Als ihr Geliebter schied (Arr. Leonard Stein)
DR14 -3.61 dB -25.61 dB 3:06 13-Sechs Gesänge nach Maeterlinck, Op. 13:V. Und kehrt er einst heim (Arr. Erwin Stein)
DR15 -1.80 dB -25.02 dB 4:08 14-Sechs Gesänge nach Maeterlinck, Op. 13:VI. Sie kam zum Schloß gegangen (Arr. Reinbert de Leeuw)
--------------------------------------------------------------------------------
Number of tracks: 15
Official DR value: DR13
Samplerate: 44100 Hz
Channels: 2
Bits per sample: 24
Bitrate: 531 kbps
Codec: FLAC
================================================================================
[teatrix.ru].t11309.torrent 
Торрент: Зарегистрирован [ 2015-12-07 13:40 ] · 7F9A659E29E9C5B588904824A3FE14BCEADF5143

Скачать .torrent

Скачать

15 KB

Статус: проверено
Скачан: 0 раз
Размер: 320 MB
terms.php



Быстрый ответ

Имя:

      
Для отправки сообщений необходимо включить JavaScript
Показать сообщения:    

Текущее время: 03-Дек 14:32

Часовой пояс: UTC + 3


Вы можете начинать темы
Вы можете отвечать на сообщения
Вы не можете редактировать свои сообщения
Вы не можете удалять свои сообщения
Вы не можете голосовать в опросах
Вы не можете прикреплять файлы к сообщениям
Вы можете скачивать файлы