[TR24][SM][OF] Dobrinka Tabakova - String Paths - Maxim Rysanov & Lithuanian Chamber Orchestra - 2013 [ECM New Series] (Classical)

DL-List and Torrent activity [Update пиров]
Size:  716 MB   |    Registered:  10 months 16 days   |    Completed:  0 times

Seeder not seen: Never

Leechers:  1  [  0 KB/s  ]   Show peers in full details


Dobrinka Tabakova (b.1980)
Формат записи/Источник записи: [TR24][SM][OF]
Наличие водяных знаков: Нет
Издание: ECM New Series 2239
Год издания/переиздания диска: 2013
Жанр: Classical
Издатель(лейбл): ECM New Series
Продолжительность: 01:12:18
Наличие сканов в содержимом раздачи: Да
Insight - For string trio
1. Insight 09:35
Concerto for Cello and Strings
2. I. Turbulent, Tense 07:19
3. II. Longing 08:42
4. III. Radiant 04:53
5. Frozen River Flows 06:13
Suite in Old Style for solo viola, harpsichord and strings
6. Prelude. Fanfare from the Balconies, Back from Hunting -... 06:01
7. II. The Rose Garden By Moonlight 07:30
8. III. Riddle of the Barrel-Organ Player - Postlude.... 05:04
Such different paths for string septet
9. Such Different Paths 16:56
Контейнер: FLAC (*.flac)
Тип рипа: tracks
Разрядность: 24/48
Формат: WAV (flac.ape.wv)
Количество каналов: 2.0
Источник (релизер): https://www.highresaudio.com/artist.php?abid=97341

Об исполнителе (группе)

Kristina Blaumane, violoncello
Maxim Rysanov, viola, conductor
Janine Jansen, violin
Roman Mints, violin
Julia-Maria Kretz, violin
Amihai Grosz, viola
Torleif Thedéen, violoncello
Boris Andrianov, violoncello
Raimondas Sviackevičius, accordion
Vaiva Eidukaitytė-Storastienė, harpsichord
Stacey Watton, double bass
Donatas Bagurskas, double bass
Lithuanian Chamber Orchestra

Dynamic Range Meter

foobar2000 1.2.6 / Dynamic Range Meter 1.1.1
log date: 2015-01-08 16:55:06
Analyzed: Janine Jansen, Julia-Maria Kretz, Amihai Grosz, Torleif Thedéen, Boris Andrianov, Stacey Watton / Dobrinka Tabakova: String Paths (1)
Kristina Blaumane, Lithuanian Chamber Orchestra, Maxim Rysanov / Dobrinka Tabakova: String Paths (2-4)
Lithuanian Chamber Orchestra, Vaiva Eidukaitytė-Storastienė, Maxim Rysanov / Dobrinka Tabakova: String Paths (5-7)
Maxim Rysanov, Kristina Blaumane, Roman Mints, Maxim Rysanov / Dobrinka Tabakova: String Paths (8)
Roman Mints, Raimondas Sviackevičius, Donatas Bagurskas / Dobrinka Tabakova: String Paths (9)
DR Peak RMS Duration Track
DR14 -0.29 dB -21.45 dB 16:57 09-Such Different Paths
DR11 -1.07 dB -14.95 dB 7:20 02-Concerto for Violoncello and Strings - I. (Turbulent, Tense)
DR10 -4.22 dB -19.56 dB 8:42 03-Concerto for Violoncello and Strings - II. (Longing)
DR12 -3.61 dB -19.53 dB 4:54 04-Concerto for Violoncello and Strings - III. (Radiant)
DR12 -1.04 dB -17.24 dB 6:01 06-Suite in Old Style - Prelude: Fanfare From The Balconies - I. Through Mirrored Corridors
DR11 -3.99 dB -19.61 dB 7:31 07-Suite in Old Style - II. The Rose Garden, By Moonlight
DR11 -1.13 dB -16.20 dB 5:04 08-Suite in Old Style - III. Riddle Of The Barrel-Organ Player - Postlude: Hunting And Finale
DR12 -0.08 dB -17.46 dB 9:35 01-Insight
DR11 -8.06 dB -24.67 dB 6:14 05-Frozen River Flows
Number of tracks: 9
Official DR value: DR12
Samplerate: 48000 Hz
Channels: 2
Bits per sample: 24
Bitrate: 1381 kbps
Codec: FLAC
Torrent: Registered [ 2015-12-07 13:40 ] · 2BBF142E760186F461B672C0179D6FAED87E6396

Download .torrent


15 KB

Status: checked
Completed: 0 times
Size: 716 MB

Quick Reply


Heads necessary to send messages to enable JavaScript
Display posts:    

Current time is: 24-Oct 04:38

All times are UTC + 3

You can post new topics in this forum
You can reply to topics in this forum
You cannot edit your posts in this forum
You cannot delete your posts in this forum
You cannot vote in polls in this forum
You cannot attach files in this forum
You can download files in this forum