[TR24][OF] William Walton - Symphony No. 1 & Violin Concerto (Tasmin Little, BBC Symphony Orchestra; Edward Gardner) - 2014 (Classical)

DL-List and Torrent activity [Update пиров]
Size:  1.28 GB   |    Registered:  10 months 18 days   |    Completed:  0 times
Seeders:  1  [  0 KB/s  ]   Show peers in full details


William Walton
Symphony No. 1 & Violin Concerto
Tasmin Little; BBC Symphony Orchestra; Edward Gardner
- Год издания: 2014
Жанр: Classical
Издатель(лейбл): Chandos Records
Продолжительность: 01:16:27
Наличие сканов: Sleeve, Digital Booklet
- -
William Walton (1902-1983)
Symphony No. 1
To the Baroness Imma Doernberg
01. I. Allegro assai (13:47)
02. II. Presto con malizia (5:52)
03. III. Andante con malinconia (11:02)
04. IV. Maestoso: Allegro brioso ed ardentemente (12:40)
Violin Concerto (Revised version, 1943)
For Jascha Heifetz
05. I. Andante tranquillo (12:18)
06. II. Presto capriccioso alla napolitana (7:04)
07. III. Vivace (13:45)
-Tasmin Little - violin (#5-7)
BBC Symphony Orchestra
Stephen Bryant - leader
Edward Gardner - conductor
Recorded: Watford Colosseum: 18 September 2013 (Violin Concerto)
Fairfield Halls, Croydon: 3 and 4 February 2014 (Symphony No. 1)
-Контейнер: FLAC (*.flac)
Тип рипа: tracks
Разрядность: 24bit / 96kHz
Количество каналов: 2.0
-О релизе

Edward Gardner, a Chandos exclusive artist, conducts the BBC Symphony Orchestra in two great masterpieces by William Walton - his Violin Concerto and the Symphony No. 1.
Walton burst onto the British musical scene in his twenties, the success of works such as Façade, the Viola Concerto, and Belshazzar’s Feast establishing him in both the avant-garde and the mainstream of British composers. The obvious next step for Walton was to compose a symphony and he was duly commissioned to do so by Sir Hamilton Harty in 1932. The first complete performance of his Symphony No. 1, in 1935, was a triumph, immediately gaining the work an honoured place in British music which it has never lost. It is a highly virtuosic work with a remarkable expressive range, in turns powerful and broad, malicious, melancholic, and majestic.
The Violin Concerto was written in 1938 in response to a commission from Jascha Heifetz. The solo part reflects not only the legendary virtuosity for which Heifetz was famous, but also the sweetness and purity of his playing of long lyrical lines. In this recording the soloist is Tasmin Little whose acclaimed recordings of concertos by Britten, Elgar, Delius, and Moeran on Chandos have already established her as one of the foremost interpreters of British music for the violin.

ОтчётыДинамический диапазон

foobar2000 1.2.2 / Dynamic Range Meter 1.1.1log date: 2014-12-29 18:44:35
--------------------------------------------------------------------------------Analyzed: BBC Symphony Orchestra; Edward Gardner / Walton: Symphony No. 1 & Violin Concerto (1-4) Tasmin Little; BBC Symphony Orchestra; Edward Gardner / Walton: Symphony No. 1 & Violin Concerto (5-7)--------------------------------------------------------------------------------
DR Peak RMS Duration Track--------------------------------------------------------------------------------DR14 -1.20 dB -21.22 dB 13:47 ?-Symphony No. 1: I. Allegro assaiDR16 -0.39 dB -23.32 dB 5:52 ?-Symphony No. 1: II. Presto con maliziaDR15 -1.17 dB -24.50 dB 11:02 ?-Symphony No. 1: III. Andante con malinconiaDR16 -0.10 dB -21.76 dB 12:40 ?-Symphony No. 1: IV. Maestoso: Allegro brioso ed ardentementeDR20 -0.31 dB -27.12 dB 12:18 ?-Violin Concerto (1943 version): I. Andante tranquilloDR18 -6.14 dB -30.75 dB 7:04 ?-Violin Concerto (1943 version): II. Presto capriccioso alla napolitanaDR20 0.00 dB -28.19 dB 13:45 ?-Violin Concerto (1943 version): III. Vivace--------------------------------------------------------------------------------
Number of tracks: 7Official DR value: DR17
Samplerate: 96000 HzChannels: 2Bits per sample: 24Bitrate: 2365 kbpsCodec: FLAC================================================================================

Скриншот спектра частот

Доп. информация

Релиз полностью готов к воспроизведению в аудиоплеере (я ориентировался на foobar2000)При скачивании, если необходимо, переименуйте папку, в которой будет находиться альбомБольшая просьба к скачавшим поддерживать раздачу! Помогайте другим, ведь вам тоже может понадобиться помощь!Не забываем говорить "Спасибо"!Комментарии приветствуются!
Torrent: Registered [ 2015-12-07 13:40 ] · 407399751DD9A76A80B22E9600F3D0AB1A111E18

Download .torrent


14 KB

Status: checked
Completed: 0 times
Size: 1.28 GB

Quick Reply


Heads necessary to send messages to enable JavaScript
Display posts:    

Current time is: 26-Oct 05:16

All times are UTC + 3

You can post new topics in this forum
You can reply to topics in this forum
You cannot edit your posts in this forum
You cannot delete your posts in this forum
You cannot vote in polls in this forum
You cannot attach files in this forum
You can download files in this forum