[TR24][OF] J.S. Bach - Brandenburgische Konzerte Nr. 1-6, BWV 1046–1051; Orchestersuiten Nr. 1-4, BWV 1066–1069; Tripelkonzert a-Moll, BWV 1044 (Münchener Bach-Orchester, Karl Richter) - 2002/2012 (Classical)


Статистика раздачи [Обновить пиров]
Размер:  4.25 GB   |    Зарегистрирован:  1 год   |    Скачан:  0 раз

Полного источника не было: Никогда

 
   
 
 
 

[Цитировать]

Johann Sebastian Bach
6 Brandenburg Concertos • 4 Orchestral Suites (Ouvertures)
Concerto for Flute, Violin & Harpsichord in A minor

Münchener Bach-Orchester, Karl Richter
- Год издания/переиздания диска: 2002/2012
Жанр: Classical
Издатель (лейбл): Deutsche Grammophon
Продолжительность: 03:33:22
Наличие сканов: Sleeve
- -Münchener Bach-Orchester
Karl Richter (conductor)
Recorded: 1960-1980; Musikhochschule; Hochschule Fur Musik, Grosser Saal; Residenz, Herkulessaal, Munich, Germany
-Контейнер: FLAC (*.flac)
Тип рипа: tracks
Разрядность: 24bit / 96kHz
Количество каналов: 2.0
-Треклист
Johann Sebastian Bach (1685-1750)
CD 1 (01:19:10)
Brandenburg Concerto No.1 in F, BWV 1046
01. 1. (Allegro) (3:41)
02. 2. Adagio (3:46)
03. 3. Allegro (4:23)
04. 4. Menuet - Trio - Polonaise (7:39)
Brandenburg Concerto No.2 in F, BWV 1047
05. 1. (Allegro) (4:48)
06. 2. Andante (3:45)
07. 3. Allegro assai (2:47)
Brandenburg Concerto No.3 in G, BWV 1048
08. 1. (Allegro) (5:25)
09. 2. Adagio (BWV 1019a) (0:52)
10. 3. Allegro (5:10)
Brandenburg Concerto No.4 in G, BWV 1049
11. 1. Allegro (7:22)
12. 2. Andante (3:54)
13. 3. Presto (5:04)
Brandenburg Concerto No.5 in D, BWV 1050
14. 1. Allegro (10:01)
15. 2. Affetuoso (5:06)
16. 3. Allegro (5:28)
CD 2 (01:06:30)
Brandenburg Concerto No.6 in B flat, BWV 1051
01. 1. Allegro moderato (6:20)
02. 2. Adagio ma non tanto (5:00)
03. 3. Allegro (5:59)
Suite No.1 In C, BWV 1066
04. 1. Ouverture (8:18)
05. 2. Courante (2:27)
06. 3. Gavotte I-II (3:23)
07. 4. Forlane (1:58)
08. 5. Menuet I-II (3:06)
09. 6. Bourrée I-II (2:38)
10. 7. Passepied I-II (3:34)
Suite No.2 In B Minor, BWV 1067
11. 1. Ouverture (9:19)
12. 2. Rondeau (1:54)
13. 3. Sarabande (4:00)
14. 4. Bourrée I-II (2:06)
15. 5. Polonaise (3:30)
16. 6. Menuet (1:28)
17. 7. Badinerie (1:32)
CD 3 (01:07:42)
Suite No.3 in D, BWV 1068
01. 1. Ouverture (9:10)
02. 2. Air (5:44)
03. 3. Gavotte I-II (4:04)
04. 4. Bourrée (1:15)
05. 5. Gigue (3:12)
Suite No.4 In D, BWV 1069
06. 1. Ouverture (9:51)
07. 2. Bourrée I-II (3:03)
08. 3. Gavotte (2:00)
09. 4. Menuet I-II (3:37)
10. 5. Réjouissance (2:48)
Concerto For Flute, Violin, Harpsichord, And Strings In A Minor, BWV 1044
11. 1. Allegro (9:14)
12. 2. Adagio ma non tanto e dolce (6:15)
13. 3. Tempo di Allabreve (7:29)
-

О релизе


Passionately Bach
This is priceless music-making. One can really feel that Richter is performing and conducting from his own heart and love for Bach, and all the while the orchestra is inspired to sing and to dance with him. The horns are laughing, the violins singing, and the listener is invited to experience flashes of happiness and joy with the chattering harpsichord.

Динамический диапазон

CD 1foobar2000 1.2.2 / Dynamic Range Meter 1.1.1log date: 2014-12-29 15:25:28
--------------------------------------------------------------------------------Analyzed: Hedwig Bilgram, Münchener Bach-Orchester / J.S. Bach: Brandenburg Concertos Nos. 1-6 BWV1046-1051 (Complete), etc. (1-3) Karl-Heinz Schneeberger, Aurèle Nicolet, Münchener Bach-Orchester, Karl Richter / J.S. Bach: Brandenburg Concertos Nos. 1-6 BWV1046-1051 (Complete), etc. (4-6) Karl-Heinz Schneeberger, Hans-Martin Linde, Günter Höller, Hedwig Bilgram, Münchener Bach-Orchester / J.S. Bach: Brandenburg Concertos Nos. 1-6 BWV1046-1051 (Complete), etc. (7-9) Karl-Heinz Schneeberger, Hans-Martin Linde, Manfred Clement, Pierre Thibaud, Hedwig Bilgram, Münchener Bach-Orchester / J.S. Bach: Brandenburg Concertos Nos. 1-6 BWV1046-1051 (Complete), etc. (10-12) Karl-Heinz Schneeberger, Manfred Clement, Hermann Baumann, Werner Meyendorf, Karl Kolbinger, Hedwig Bilgram, Münchener Bach-Orchester / J.S. Bach: Brandenburg Concertos Nos. 1-6 BWV1046-1051 (Complete), etc. (13-16)--------------------------------------------------------------------------------
DR Peak RMS Duration Track--------------------------------------------------------------------------------DR12 -0.24 dB -16.75 dB 5:25 ?-Brandenburg Concerto No.3 in G, BWV 1048: 1. (Allegro)DR12 -15.89 dB -34.60 dB 0:52 ?-Brandenburg Concerto No.3 in G, BWV 1048: 2. Adagio (BWV 1019a)DR14 -1.46 dB -18.19 dB 5:10 ?-Brandenburg Concerto No.3 in G, BWV 1048: 3. AllegroDR14 -1.55 dB -21.76 dB 10:01 ?-Brandenburg Concerto No.5 in D, BWV 1050: 1. AllegroDR12 -6.37 dB -24.89 dB 5:06 ?-Brandenburg Concerto No.5 in D, BWV 1050: 2. AffetuosoDR13 -2.83 dB -20.48 dB 5:28 ?-Brandenburg Concerto No.5 in D, BWV 1050: 3. AllegroDR12 -3.75 dB -20.42 dB 7:22 ?-Brandenburg Concerto No.4 in G, BWV 1049: 1. AllegroDR11 -2.78 dB -18.62 dB 3:54 ?-Brandenburg Concerto No.4 in G, BWV 1049: 2. AndanteDR12 -2.17 dB -18.42 dB 5:04 ?-Brandenburg Concerto No.4 in G, BWV 1049: 3. PrestoDR12 -1.30 dB -17.29 dB 4:48 ?-Brandenburg Concerto No.2 in F, BWV 1047: 1. (Allegro)DR10 -12.25 dB -25.49 dB 3:45 ?-Brandenburg Concerto No.2 in F, BWV 1047: 2. AndanteDR12 -1.37 dB -17.24 dB 2:47 ?-Brandenburg Concerto No.2 in F, BWV 1047: 3. Allegro assaiDR12 -1.12 dB -17.37 dB 3:41 ?-Brandenburg Concerto No.1 in F, BWV 1046: 1. (Allegro)DR12 -4.40 dB -22.44 dB 3:46 ?-Brandenburg Concerto No.1 in F, BWV 1046: 2. AdagioDR12 -2.36 dB -18.83 dB 4:23 ?-Brandenburg Concerto No.1 in F, BWV 1046: 3. AllegroDR12 -0.65 dB -18.03 dB 7:39 ?-Brandenburg Concerto No.1 in F, BWV 1046: 4. Menuet - Trio - Polonaise--------------------------------------------------------------------------------
Number of tracks: 16Official DR value: DR12
Samplerate: 96000 HzChannels: 2Bits per sample: 24Bitrate: 2746 kbpsCodec: FLAC================================================================================
CD 2foobar2000 1.2.2 / Dynamic Range Meter 1.1.1log date: 2014-12-29 15:30:21
--------------------------------------------------------------------------------Analyzed: Aurèle Nicolet, Münchener Bach-Orchester / J.S. Bach: Brandenburg Concertos Nos. 1-6 BWV1046-1051 (Complete), etc. (1-7) Kurt-Christian Stier, Ingo Sinnhoffer, Oswald Uhl, Johannes Fink, Fritz Kiskalt, Herbert Duft, Münchener Bach-Orchester, Karl Richter / J.S. Bach: Brandenburg Concertos Nos. 1-6 BWV1046-1051 (Complete), etc. (8-10) Münchener Bach-Orchester / J.S. Bach: Brandenburg Concertos Nos. 1-6 BWV1046-1051 (Complete), etc. (11-17)--------------------------------------------------------------------------------
DR Peak RMS Duration Track--------------------------------------------------------------------------------DR10 -3.72 dB -16.25 dB 9:19 ?-Suite No.2 In B Minor, BWV 1067: 1. OuvertureDR11 -3.99 dB -19.41 dB 1:54 ?-Suite No.2 In B Minor, BWV 1067: 2. RondeauDR10 -3.88 dB -16.75 dB 4:00 ?-Suite No.2 In B Minor, BWV 1067: 3. SarabandeDR9 -3.02 dB -15.28 dB 2:06 ?-Suite No.2 In B Minor, BWV 1067: 4. Bourrée I-IIDR10 -4.10 dB -17.93 dB 3:30 ?-Suite No.2 In B Minor, BWV 1067: 5. PolonaiseDR12 -5.50 dB -21.44 dB 1:28 ?-Suite No.2 In B Minor, BWV 1067: 6. MenuetDR13 -5.16 dB -21.21 dB 1:32 ?-Suite No.2 In B Minor, BWV 1067: 7. BadinerieDR13 -3.96 dB -21.73 dB 6:20 ?-Brandenburg Concerto No.6 in B flat, BWV 1051: 1. Allegro moderatoDR12 -6.52 dB -24.71 dB 5:00 ?-Brandenburg Concerto No.6 in B flat, BWV 1051: 2. Adagio ma non tantoDR13 -4.46 dB -21.41 dB 5:59 ?-Brandenburg Concerto No.6 in B flat, BWV 1051: 3. AllegroDR10 -0.99 dB -15.13 dB 8:18 ?-Suite No.1 In C, BWV 1066: 1. OuvertureDR12 -2.31 dB -18.70 dB 2:27 ?-Suite No.1 In C, BWV 1066: 2. CouranteDR13 -5.87 dB -23.84 dB 3:23 ?-Suite No.1 In C, BWV 1066: 3. Gavotte I-IIDR10 -3.54 dB -16.97 dB 1:58 ?-Suite No.1 In C, BWV 1066: 4. ForlaneDR12 -2.85 dB -21.12 dB 3:06 ?-Suite No.1 In C, BWV 1066: 5. Menuet I-IIDR12 -3.19 dB -19.65 dB 2:38 ?-Suite No.1 In C, BWV 1066: 6. Bourrée I-IIDR11 -6.19 dB -21.55 dB 3:34 ?-Suite No.1 In C, BWV 1066: 7. Passepied I-II--------------------------------------------------------------------------------
Number of tracks: 17Official DR value: DR11
Samplerate: 96000 HzChannels: 2Bits per sample: 24Bitrate: 2811 kbpsCodec: FLAC================================================================================
CD 3foobar2000 1.2.2 / Dynamic Range Meter 1.1.1log date: 2014-12-29 15:37:15
--------------------------------------------------------------------------------Analyzed: Aurèle Nicolet, Gerhart Hetzel, Karl Richter, Münchener Bach-Orchester / J.S. Bach: Brandenburg Concertos Nos. 1-6 BWV1046-1051 (Complete), etc. (1) Aurèle Nicolet, Gerhart Hetzel, Münchener Bach-Orchester / J.S. Bach: Brandenburg Concertos Nos. 1-6 BWV1046-1051 (Complete), etc. (2-3) Münchener Bach-Orchester / J.S. Bach: Brandenburg Concertos Nos. 1-6 BWV1046-1051 (Complete), etc. (4-13)--------------------------------------------------------------------------------
DR Peak RMS Duration Track--------------------------------------------------------------------------------DR13 -14.50 dB -31.16 dB 6:15 ?-Concerto For Flute, Violin, Harpsichord, And Strings In A Minor, BWV 1044: 2. Adagio ma non tanto e dolceDR13 -4.03 dB -21.82 dB 9:14 ?-Concerto For Flute, Violin, Harpsichord, And Strings In A Minor, BWV 1044: 1. AllegroDR13 -4.04 dB -21.91 dB 7:29 ?-Concerto For Flute, Violin, Harpsichord, And Strings In A Minor, BWV 1044: 3. Tempo di AllabreveDR9 -2.17 dB -14.59 dB 9:10 ?-Suite No.3 in D, BWV 1068: 1. OuvertureDR11 -8.53 dB -25.87 dB 5:44 ?-Suite No.3 in D, BWV 1068: 2. AirDR11 -3.42 dB -18.77 dB 4:04 ?-Suite No.3 in D, BWV 1068: 3. Gavotte I-IIDR10 -3.13 dB -15.62 dB 1:15 ?-Suite No.3 in D, BWV 1068: 4. BourréeDR10 -3.47 dB -15.71 dB 3:12 ?-Suite No.3 in D, BWV 1068: 5. GigueDR12 -0.08 dB -16.44 dB 9:51 ?-Suite No.4 In D, BWV 1069: 1. OuvertureDR14 -1.08 dB -20.90 dB 3:03 ?-Suite No.4 In D, BWV 1069: 2. Bourrée I-IIDR12 -2.49 dB -19.44 dB 2:00 ?-Suite No.4 In D, BWV 1069: 3. GavotteDR12 -5.61 dB -22.05 dB 3:37 ?-Suite No.4 In D, BWV 1069: 4. Menuet I-IIDR11 -0.27 dB -16.33 dB 2:48 ?-Suite No.4 In D, BWV 1069: 5. Réjouissance--------------------------------------------------------------------------------
Number of tracks: 13Official DR value: DR12
Samplerate: 96000 HzChannels: 2Bits per sample: 24Bitrate: 2899 kbpsCodec: FLAC================================================================================

Доп. информация

Релиз полностью готов к воспроизведению в аудиоплеере (я ориентировался на foobar2000)При скачивании, если необходимо, переименуйте папку, в которой будет находиться альбомБольшая просьба к скачавшим поддерживать раздачу! Помогайте другим, ведь вам тоже может понадобиться помощь!Не забываем говорить "Спасибо"!Комментарии приветствуются!
[teatrix.ru].t11314.torrent 
Торрент: Зарегистрирован [ 2015-12-07 13:40 ] · 97F61D0F723A4EEECC0377A2EAC6E08FDA85B986

Скачать .torrent

Скачать

27 KB

Статус: проверено
Скачан: 0 раз
Размер: 4.25 GB
terms.php



Быстрый ответ

Имя:

      
Для отправки сообщений необходимо включить JavaScript
Показать сообщения:    

Текущее время: 10-Дек 19:36

Часовой пояс: UTC + 3


Вы можете начинать темы
Вы можете отвечать на сообщения
Вы не можете редактировать свои сообщения
Вы не можете удалять свои сообщения
Вы не можете голосовать в опросах
Вы не можете прикреплять файлы к сообщениям
Вы можете скачивать файлы