[TR24][SM][OF] Claude Debussy - L'isle joyeuse, Images Book I, Etudes Book II & Estampes - Nelson Goerner - 2013 (Classical)


Статистика раздачи [Обновить пиров]
Размер:  852 MB   |    Зарегистрирован:  1 год   |    Скачан:  0 раз

Полного источника не было: Никогда

 
   
 
 
 

[Цитировать]

Claude Debussy (1862-1918)
Формат записи/Источник записи: [TR24][SM][OF]
Наличие водяных знаков: Нет
Издание: ZZT 326
Год издания/переиздания диска: 2013
Жанр: Classical
Издатель(лейбл): Zig-Zag Territoires
Продолжительность: 01:01:58
Наличие сканов в содержимом раздачи: Да
Треклист:
ESTAMPES
1. Pagodes 5'02
2. La Soirée dans Grenade 5'16
3. Jardins sous la pluie 3'27
ETUDES BOOK II
4. Pour les degrés chromatiques 2'14
5. Pour les agréments 5'18
6. Pour les notes répétées 3'19
7. Pour les sonorités opposées 5'39
8. Pour les arpèges composés 4'29
9. Pour les accords 4'40
IMAGES BOOK I
10. Reflets dans l’eau 5'11
11. Hommage à Rameau 6'55
12. Mouvement 3'23
13. L'ISLE JOYEUSE 6'34
Контейнер: FLAC (*.flac)
Тип рипа: tracks
Разрядность: 24/88,2
Формат: WAV (flac.ape.wv)
Количество каналов: 2.0
Источник (релизер): http://www.qobuz.com/fr-fr/album/claude-debussy-est...er/3760009293267
Исполнитель: Nelson Goerner - piano

Dynamic Range Meter

foobar2000 1.2.2 / Dynamic Range Meter 1.1.1
log date: 2014-12-28 19:09:12
--------------------------------------------------------------------------------
Analyzed: Nelson Goerner / Claude Debussy: Estampes - Etudes Book II - Images Book I - L'isle joyeuse
--------------------------------------------------------------------------------
DR Peak RMS Duration Track
--------------------------------------------------------------------------------
DR14 -1.06 dB -23.38 dB 5:04 01-Estampes, L. 100:I. Pagodes
DR15 -4.28 dB -25.06 dB 5:18 02-Estampes, L. 100:II. La soirée dans Grenade
DR13 -2.93 dB -20.65 dB 3:34 03-Estampes, L. 100:III. Jardins sous la pluie
DR14 -5.80 dB -25.80 dB 2:16 04-Etudes, Book 2, L. 136:VII. Pour les degrés chromatiques
DR14 -4.94 dB -26.25 dB 5:19 05-Etudes, Book 2, L. 136:VIII. Pour les agréments
DR17 -0.08 dB -24.64 dB 3:19 06-Etudes, Book 2, L. 136:IX. Pour les notes répétées
DR19 -1.88 dB -29.83 dB 5:40 07-Etudes, Book 2, L. 136:X. Pour les sonorités opposées
DR15 -3.67 dB -25.79 dB 4:30 08-Etudes, Book 2, L. 136:XI. Pour les arpèges composés
DR14 -0.08 dB -20.64 dB 4:50 09-Etudes, Book 2, L. 136:XII. Pour les accords
DR15 -2.88 dB -26.51 dB 5:11 10-Images, Book 1, L. 110:I. Reflets dans l'eau
DR17 -0.59 dB -25.71 dB 6:58 11-Images, Book 1, L. 110:II. Hommage à Rameau
DR13 -1.47 dB -20.22 dB 3:32 12-Images, Book 1, L. 110:III. Mouvement
DR14 -0.07 dB -19.34 dB 6:34 13-L'isle joyeuse, L. 106
--------------------------------------------------------------------------------
Number of tracks: 13
Official DR value: DR15
Samplerate: 88200 Hz
Channels: 2
Bits per sample: 24
Bitrate: 1980 kbps
Codec: FLAC
================================================================================
[teatrix.ru].t11316.torrent 
Торрент: Зарегистрирован [ 2015-12-07 13:40 ] · 62BC7DC1E828B7CA2D5BA7CE5FF1C275E7B91D28

Скачать .torrent

Скачать

18 KB

Статус: проверено
Скачан: 0 раз
Размер: 852 MB
terms.php



Быстрый ответ

Имя:

      
Для отправки сообщений необходимо включить JavaScript
Показать сообщения:    

Текущее время: 10-Дек 06:10

Часовой пояс: UTC + 3


Вы можете начинать темы
Вы можете отвечать на сообщения
Вы не можете редактировать свои сообщения
Вы не можете удалять свои сообщения
Вы не можете голосовать в опросах
Вы не можете прикреплять файлы к сообщениям
Вы можете скачивать файлы