[TR24][OF] Gustav Mahler - Sinfonie Nr. 8 in Es-Dur "Sinfonie der Tausend" (New York Philharmonic, Lorin Maazel) - 2009 (Classical, Orchestral)


Статистика раздачи [Обновить пиров]
Размер:  1.64 GB   |    Зарегистрирован:  11 месяцев 26 дней   |    Скачан:  0 раз
Сидов:  1  [  0 KB/s  ]   Подробная статистика пиров
 
   
 
 
 

[Цитировать]

Gustav Mahler
Symphony No.8
New York Philharmonic, Lorin Maazel
- Год издания: 2009
Жанр: Classical, Orchestral
Издатель (лейбл): New York Philharmonic
Продолжительность: 01:31:46
Наличие сканов: Sleeve, Digital Booklet
- -
Gustav Mahler (1860-1911)
Symphony No.8 in Eb ‘Symphony of a Thousand' (1906–07)
Part I (Hymn: Veni, creator spiritus)
01. I. Veni, creator spiritus (1:40)
02. II. Imple superna gratia (5:17)
03. III. Infirma nostri corporis (7:22)
04. IV. Accende lumen sensibus (5:35)
05. V. Veni, creator spiritus (5:05)
06. VI. Gloria Patri Domino (2:57)
Part II (Final scene of Faust)
07. I. Poco adagio (12:03)
08. II. Waldung, sie schwankt heran (4:57)
09. III. Ewiger Wonnebrand (1:35)
10. IV. Wie Felsenabgrund mir zu Füßen (4:53)
11. V. Gerettet ist das edle Glied (3:40)
12. VI. Uns bleibt ein Erdenrest (3:23)
13. VII. Höchste Herrscherin der Welt! (5:49)
14. VIII. Dir, der Unberührbaren (2:36)
15. IX. Bei der Liebe, die den Füßen (6:16)
16. X. Neige, neige, du Ohnegleiche (4:21)
17. XI. Komm! hebe dich zu höhern Sphären! (1:10)
18. XII. Blikket auf (6:22)
19. XIII. Alles Vergängliche (6:46)
-Christine Brewer, Soprano (Magna Peccatrix)
Nancy Gustafson, Soprano (Una Poenitentium)
Jeanine DeBique, Soprano (Mater gloriosa)
Mary Phillips, Mezzo-soprano (Mulier Samaritana)
Nancy Maultsby, Mezzo-soprano (Maria Aegyptiaca)
Anthony Dean Griffey, Tenor (Doctor Marianus)
Wolfgang Schöne, Bass (Pater ecstaticus)
Jason Grant, Bass-baritone (Pater profundus)
New York Choral Artists, Joseph Flummerfelt, Director
The Dessoff Symphonic Choir, James Bagwell, Director
Brooklyn Youth Chorus, Dianne Berkun, Director
New York Philharmonic
Lorin Maazel (conductor)
Recorded: June 24–27, 2009, Avery Fisher Hall at Lincoln Center for the Performing Arts
-Контейнер: FLAC (*.flac)
Тип рипа: tracks
Разрядность: 24bit / 96kHz
Количество каналов: 2.0-

ОтчётыДинамический диапазон

foobar2000 1.2.2 / Dynamic Range Meter 1.1.1log date: 2014-12-27 17:01:37
--------------------------------------------------------------------------------Analyzed: New York Philharmonic, Lorin Maazel / Mahler: Symphony No. 8--------------------------------------------------------------------------------
DR Peak RMS Duration Track--------------------------------------------------------------------------------DR11 -3.65 dB -18.79 dB 1:40 ?-Symphony No. 8: I - I. Veni, creator spiritusDR13 -1.20 dB -22.47 dB 5:17 ?-Symphony No. 8: I - II. Imple superna gratiaDR15 -3.54 dB -24.16 dB 7:22 ?-Symphony No. 8: I - III. Infirma nostri corporisDR13 -2.24 dB -18.41 dB 5:35 ?-Symphony No. 8: I - IV. Accende lumen sensibusDR14 -0.59 dB -21.10 dB 5:05 ?-Symphony No. 8: I - V. Veni, creator spiritusDR12 -0.26 dB -16.52 dB 2:57 ?-Symphony No. 8: I - VI. Gloria Patri DominoDR13 -4.09 dB -22.52 dB 12:03 ?-Symphony No. 8: II - I. Poco adagioDR12 -12.88 dB -31.44 dB 4:57 ?-Symphony No. 8: II - II. Waldung, sie schwankt heranDR13 -6.05 dB -24.30 dB 1:35 ?-Symphony No. 8: II - III. Ewiger WonnebrandDR15 -2.73 dB -22.76 dB 4:53 ?-Symphony No. 8: II - IV. Wie Felsenabgrund mir zu FüßenDR13 -3.52 dB -21.52 dB 3:40 ?-Symphony No. 8: II - V. Gerettet ist das edle GliedDR16 -2.54 dB -25.12 dB 3:23 ?-Symphony No. 8: II - VI. Uns bleibt ein ErdenrestDR13 -4.53 dB -27.31 dB 5:49 ?-Symphony No. 8: II - VII. Höchste Herrscherin der Welt!DR13 -3.07 dB -24.74 dB 2:36 ?-Symphony No. 8: II - VIII. Dir, der UnberührbarenDR16 -4.47 dB -26.43 dB 6:16 ?-Symphony No. 8: II - IX. Bei der Liebe, die den FüßenDR13 -4.04 dB -24.45 dB 4:21 ?-Symphony No. 8: II - X. Neige, neige, du OhnegleicheDR11 -14.48 dB -31.05 dB 1:10 ?-Symphony No. 8: II - XI. Komm! hebe dich zu höhern Sphären!DR14 -1.64 dB -21.49 dB 6:22 ?-Symphony No. 8: II - XII. Blikket aufDR13 -0.58 dB -19.30 dB 6:46 ?-Symphony No. 8: II - XIII. Alles Vergängliche--------------------------------------------------------------------------------
Number of tracks: 19Official DR value: DR13
Samplerate: 96000 HzChannels: 2Bits per sample: 24Bitrate: 2578 kbpsCodec: FLAC================================================================================

Скриншот спектра частот

Доп. информация

Релиз полностью готов к воспроизведению в аудиоплеере (я ориентировался на foobar2000)При скачивании, если необходимо, переименуйте папку, в которой будет находиться альбомБольшая просьба к скачавшим поддерживать раздачу! Помогайте другим, ведь вам тоже может понадобиться помощь!Не забываем говорить "Спасибо"!Комментарии приветствуются!
[teatrix.ru].t11317.torrent 
Торрент: Зарегистрирован [ 2015-12-07 13:40 ] · BFC4084DC9650CB863BA5FA978D54AE82ABBD233

Скачать .torrent

Скачать

19 KB

Статус: проверено
Скачан: 0 раз
Размер: 1.64 GB
terms.php



Быстрый ответ

Имя:

      
Для отправки сообщений необходимо включить JavaScript
Показать сообщения:    

Текущее время: 03-Дек 03:24

Часовой пояс: UTC + 3


Вы можете начинать темы
Вы можете отвечать на сообщения
Вы не можете редактировать свои сообщения
Вы не можете удалять свои сообщения
Вы не можете голосовать в опросах
Вы не можете прикреплять файлы к сообщениям
Вы можете скачивать файлы