[TR24][OF] Richard Strauss - Vier letzte Lieder, Ein Heldenleben (Анна Нетребко, Staatskapelle Berlin, Daniel Barenboim) - 2014 (Classical, Romantic)


Статистика раздачи [Обновить пиров]
Размер:  1.22 GB   |    Зарегистрирован:  11 месяцев   |    Скачан:  1 раз

Полного источника не было: 1 месяц 12 дней

 
   
 
 
 

[Цитировать]

Richard StraussFour Last SongsAnna Netrebko, Staatskapelle Berlin, Daniel Barenboim- Год издания: 2014
Жанр: Classical, Romantic
Издатель (лейбл): Deutsche Grammophon
Продолжительность: 01:08:22
Наличие сканов: Sleeve, Digital Booklet
- -
Richard Strauss (1864-1949)
Vier letzte Lieder, AV 150
01. 1. Frühling (3:23)
02. 2. September (4:44)
03. 3. Beim Schlafengehen (5:40)
04. 4. Im Abendrot (8:11)
Ein Heldenleben, Op.40
05. Der Held (4:24)
06. Des Helden Widersacher (3:32)
07. Des Helden Gefährtin (12:34)
08. Des Helden Walstatt (8:43)
09. Des Helden Friedenswerke (6:05)
10. Des Helden Weltflucht und Vollendung (11:05)
-
Анна Нетребко - soprano
Staatskapelle Berlin
Wolfram Brandl - solo violin
Daniel Barenboim - conductor
Recorded: Berlin, Philharmonie, 8/2014
-Контейнер: FLAC (*.flac)
Тип рипа: tracks
Разрядность: 24bit / 96kHz
Количество каналов: 2.0
-О релизе

Saving the best for last in the Richard Strauss anniversary 2014. The world’s most luxurious soprano, Anna Netrebko, sings Richard Strauss’ sumptuous Four Last Songs, accompanied by the Staatskapelle Berlin and Daniel Barenboim. An irresistible, all-star combination.
Netrebko is a phenomenon. The world’s best-selling active soprano and quite simply, the undisputed superstar – “la prima donna assoluta' (New York Post) – of opera today. Known equally for her poise, her sensuality and her voice’s unmistakable color, Strauss’s elegiac Four Last Songs are an exquisite vehicle for her expressive gifts: Netrebko’s first recording of these gorgeous, iconic songs.
Barenboim: conductor, pianist, humanitarian - perhaps the world’s most complete living musician. A venerated interpreter of Wagner, Mozart, Beethoven and Bruckner, in many ways the music of Richard Strauss represents the apotheosis of Barenboim’s musical ethos. In 1954, the then 11 year-old Barenboim was introduced to his idol, conductor Wilhelm Furtwängler. It was Furtwängler who conducted the world premiere of Strauss’ Four Last Songs in 1949
The Staatskapelle Berlin, one of Germany’s oldest and most prestigious orchestras boasts a proud Strauss tradition including great performances and recording under the composer himself, as well as under great Straussians Felix Weingartner, Leo Blech, Erich Kleiber, Wilhelm Furtwängler, Otto Klemperer, Clemens Krauss, Hans Knappertsbusch, Joseph Keilberth, Ottmar Suitner and Daniel Barenboim.
The Staatskapelle and Barenboim then interpret Ein Heldenleben, one of the most vivid and popular tone poems by Strauss, who himself was Generalmusikdirektor of the Staatskapelle a century ago.

ОтчётыДинамический диапазон

foobar2000 1.2.2 / Dynamic Range Meter 1.1.1log date: 2014-12-26 23:15:58
--------------------------------------------------------------------------------Analyzed: Anna Netrebko; Staatskapelle Berlin; Daniel Barenboim / Strauss: Four Last Songs (1-4) Staatskapelle Berlin; Daniel Barenboim / Strauss: Four Last Songs (5-9) Wolfram Brandl; Staatskapelle Berlin; Daniel Barenboim / Strauss: Four Last Songs (10)--------------------------------------------------------------------------------
DR Peak RMS Duration Track--------------------------------------------------------------------------------DR10 -1.76 dB -17.86 dB 3:23 ?-Vier letzte Lieder, AV 150 - 1. FrühlingDR12 -3.15 dB -21.52 dB 4:44 ?-Vier letzte Lieder, AV 150 - 2. SeptemberDR13 -1.93 dB -22.23 dB 5:40 ?-Vier letzte Lieder, AV 150 - 3. Beim SchlafengehenDR14 -5.35 dB -24.78 dB 8:11 ?-Vier letzte Lieder, AV 150 - 4. Im AbendrotDR11 -0.20 dB -15.02 dB 4:24 ?-Ein Heldenleben, Op.40 - Der HeldDR12 -2.23 dB -21.48 dB 3:32 ?-Ein Heldenleben, Op.40 - Des Helden WidersacherDR10 0.00 dB -13.67 dB 8:43 ?-Ein Heldenleben, Op.40 - Des Helden WalstattDR12 -0.26 dB -19.17 dB 6:05 ?-Ein Heldenleben, Op.40 - Des Helden FriedenswerkeDR13 -0.25 dB -19.40 dB 11:05 ?-Ein Heldenleben, Op.40 - Des Helden Weltflucht und VollendungDR15 -0.30 dB -22.69 dB 12:34 ?-Ein Heldenleben, Op.40 - Des Helden Gefährtin--------------------------------------------------------------------------------
Number of tracks: 10Official DR value: DR12
Samplerate: 96000 HzChannels: 2Bits per sample: 24Bitrate: 2442 kbpsCodec: FLAC================================================================================

Скриншот спектра частот

Доп. информация

Релиз полностью готов к воспроизведению в аудиоплеере (я ориентировался на foobar2000)При скачивании, если необходимо, переименуйте папку, в которой будет находиться альбомБольшая просьба к скачавшим поддерживать раздачу! Помогайте другим, ведь вам тоже может понадобиться помощь!Не забываем говорить "Спасибо"!Комментарии приветствуются!
[teatrix.ru].t11318.torrent 
Торрент: Зарегистрирован [ 2015-12-07 13:40 ] · 3F6DCEBA2B2BC8C11DBA4BB887C69A6B1C4F3680

Скачать .torrent

Скачать

14 KB

Статус: проверено
Скачан: 1 раз
Размер: 1.22 GB
terms.php



Быстрый ответ

Имя:

      
Для отправки сообщений необходимо включить JavaScript
Показать сообщения:    

Текущее время: 07-Дек 11:34

Часовой пояс: UTC + 3


Вы можете начинать темы
Вы можете отвечать на сообщения
Вы не можете редактировать свои сообщения
Вы не можете удалять свои сообщения
Вы не можете голосовать в опросах
Вы не можете прикреплять файлы к сообщениям
Вы можете скачивать файлы