[TR24][OF] Fritz Lehmann - Christmas Spirit: The Best Classical Choirs - 2014 (Classical, Choral)


Статистика раздачи [Обновить пиров]
Размер:  1.25 GB   |    Зарегистрирован:  11 месяцев   |    Скачан:  0 раз

Полного источника не было: Никогда

Личеров:  2  [  0 KB/s  ]   Подробная статистика пиров
 
   
 
 
 

[Цитировать]

Christmas SpiritThe Best Classical ChoirsFritz Lehmann -Год издания: 2014
Жанр: Classical, Choral
Издатель (лейбл): BNF Collection
Продолжительность: 01:42:04
Наличие сканов: Sleeve
- -Fritz Lehmann - conductor-Контейнер: FLAC (*.flac)
Тип рипа: tracks
Разрядность: 24bit / 96kHz
Количество каналов: 2.0
-Треклист и исполнители
Marc-Antoine Charpentier
Messe de minuit pour Noël, H. 1
01. Kyrie (7:11)
Chorale des Jeunesses musicales de France, Orchestre Jean-François Paillard, Louis Martini, André Meurant, Jean-Jacques Lesueur, Georges Abdoun
02. Gloria (7:10)
Chorale des Jeunesses musicales de France, Orchestre Jean-François Paillard, Louis Martini, André Meurant, Jean-Jacques Lesueur, Georges Abdoun, Édith Selig, Martha Angelici
03. Credo (5:53)
Chorale des Jeunesses musicales de France, Orchestre Jean-François Paillard, Louis Martini, Georges Abdoun
04. Offertoire (7:05)
Chorale des Jeunesses musicales de France, Orchestre Jean-François Paillard, Louis Martini, Jean-Jacques Lesueur, André Meurant, Georges Abdoun, Martha Angelici, Édith Selig
05. Sanctus (6:01)
06. Agnus Dei (4:08)
Chorale des Jeunesses musicales de France, Orchestre Jean-François Paillard, Louis Martini, André Meurant, Jean-Jacques Lesueur, Georges Abdoun
Johann Sebastian Bach
Christmas Oratorio, BWV 248
Pt. 1 "Cantata for Christmas Day"
07. Chorus. "Jauchzet, frohlocket, auf preiset die Tage" (8:13)
08. Chorale. "Wie soll ich dich empfangen?" (1:42)
Berliner Philharmoniker, Fritz Lehmann, Berliner Motettenchor, Rias Kammerchor
09. Chorale and Recitative. "Er ist auf Erden kommen arm" (4:14)
Berliner Philharmoniker, Fritz Lehmann, Berliner Motettenchor, Rias Kammerchor, Heinz Rehfuss
10. Chorale. "Ach mein herzliebes Jesulein" (1:06)
Berliner Philharmoniker, Fritz Lehmann, Berliner Motettenchor, Rias Kammerchor
Pt. 2 "Cantata for the Second Day of Christmas"
11. Chorale. "Schaut hin, dort liegt im finstern Stall" (0:51)
12. Chorus. "Ehre sei Gott in der Höhe" (2:42)
13. Chorale. "Wir singen dir in deinem Heer" (1:27)
Berliner Philharmoniker, Fritz Lehmann, Berliner Motettenchor, Rias Kammerchor
Pt. 3 "Cantata for the Third Day of Christmas"
14. Chorus. "Lasset uns nun gehen gen Bethlehem" (0:41)
15. Chorale. "Dies hat er allen uns getan" (0:51)
16. Chorale. "Ich will dich mit Fleiss bewahren" (1:20)
17. Chorale. "Seid froh dieweil" (0:56)
18. Chorus. "Herrscher des Himmels, erhöre das Lallen" (2:09)
Berliner Philharmoniker, Fritz Lehmann, Berliner Motettenchor, Rias Kammerchor
Anonymous
Cycle de Noël
19. Introit. Ecce advenit in Mode II (2:26)
20. Graduel. Omnes de Saba in Mode V (2:24)
21. Communion. Dicit Dominus in Mode VI (1:26)
22. Introit. Viri Galilaei in Mode VII (2:50)
23. Jubilate in Mode I (3:22)
Schola des Pères du Saint-Esprit du Grand Scolasticat de Chevilly, Révérend Père Lucien Deiss
Claude Debussy
Noël des enfants qui n'ont plus de maisons, L. 139
24. Noël des enfants qui n'ont plus de maisons, L. 139 (2:30)
Jacques Jouineau, Odette Pigault, Maîtrise de la Radiodiffusion française
Arthur Honegger
Une cantate de Noël
25. De profundis clamavi (10:03)
Orchestre de la Suisse Romande, Ernest Ansermet, Choeur des jeunes de Lausanne, Choeur Pro Arte de Lausanne, Petit choeur du collège de Villamont
26. Ne craignez point (6:25)
27. Laudate Dominum (7:01)
Orchestre de la Suisse Romande, Ernest Ansermet, Choeur des jeunes de Lausanne, Choeur Pro Arte de Lausanne, Petit choeur du collège de Villamont, Pierre Mollet

ОтчётыДинамический диапазон

foobar2000 1.2.2 / Dynamic Range Meter 1.1.1log date: 2014-12-24 14:47:31
--------------------------------------------------------------------------------Analyzed: Berliner Philharmoniker, Fritz Lehmann, Berliner Motettenchor, Rias Kammerchor, Heinz Rehfuss / Fritz Lehmann : Christmas Spirit, The Best Classical Choirs (1) Berliner Philharmoniker, Fritz Lehmann, Berliner Motettenchor, Rias Kammerchor / Fritz Lehmann : Christmas Spirit, The Best Classical Choirs (2-12) Chorale des Jeunesses musicales de France, Orchestre Jean-François Paillard, Louis Martini, André Meurant, Jean-Jacques Lesueur, Georges Abdoun, Édith Selig, Martha Angelici / Fritz Lehmann : Christmas Spirit, The Best Classical Choirs (13) Chorale des Jeunesses musicales de France, Orchestre Jean-François Paillard, Louis Martini, André Meurant, Jean-Jacques Lesueur, Georges Abdoun / Fritz Lehmann : Christmas Spirit, The Best Classical Choirs (14-15) Chorale des Jeunesses musicales de France, Orchestre Jean-Francois Paillard, Louis Martini, Andre Meurant, Jean-Jacques Lesueur, Georges Abdoun / Fritz Lehmann : Christmas Spirit, The Best Classical Choirs (16) Chorale des Jeunesses musicales de France, Orchestre Jean-François Paillard, Louis Martini, Georges Abdoun / Fritz Lehmann : Christmas Spirit, The Best Classical Choirs (17) Chorale des Jeunesses musicales de France, Orchestre Jean-Francois Paillard, Louis Martini, Jean-Jacques Lesueur, Andre Meurant, Georges Abdoun, Martha Angelici, Edith Selig / Fritz Lehmann : Christmas Spirit, The Best Classical Choirs (18) Jacques Jouineau, Odette Pigault, Maîtrise de la Radiodiffusion française / Fritz Lehmann : Christmas Spirit, The Best Classical Choirs (19) Orchestre de la Suisse Romande, Ernest Ansermet, Choeur des jeunes de Lausanne, Choeur Pro Arte de Lausanne, Petit choeur du college de Villamont, Pierre Mollet / Fritz Lehmann : Christmas Spirit, The Best Classical Choirs (20-21) Orchestre de la Suisse Romande, Ernest Ansermet, Choeur des jeunes de Lausanne, Choeur Pro Arte de Lausanne, Petit choeur du collège de Villamont / Fritz Lehmann : Christmas Spirit, The Best Classical Choirs (22) Schola des Pères du Saint-Esprit du Grand Scolasticat de Chevilly, Révérend Père Lucien Deiss / Fritz Lehmann : Christmas Spirit, The Best Classical Choirs (23-27)--------------------------------------------------------------------------------
DR Peak RMS Duration Track--------------------------------------------------------------------------------DR14 -10.36 dB -28.93 dB 4:14 ?-Christmas Oratorio, BWV 248, Pt. 1 "Cantata for Christmas Day": Chorale and Recitative. "Er ist auf Erden kommen arm"DR11 -1.41 dB -15.90 dB 8:13 ?-Christmas Oratorio, BWV 248, Pt. 1 "Cantata for Christmas Day": Chorus. "Jauchzet, frohlocket, auf preiset die Tage"DR11 -12.16 dB -27.20 dB 1:42 ?-Christmas Oratorio, BWV 248, Pt. 1 "Cantata for Christmas Day": Chorale. "Wie soll ich dich empfangen?"DR11 -11.15 dB -25.37 dB 1:06 ?-Christmas Oratorio, BWV 248, Pt. 1 "Cantata for Christmas Day": Chorale. "Ach mein herzliebes Jesulein"DR9 -13.34 dB -28.24 dB 0:51 ?-Christmas Oratorio, BWV 248, Pt. 2 "Cantata for the Second Day of Christmas": Chorale. "Schaut hin, dort liegt im finstern Stall"DR9 -3.69 dB -17.19 dB 2:42 ?-Christmas Oratorio, BWV 248, Pt. 2 "Cantata for the Second Day of Christmas": Chorus. "Ehre sei Gott in der Höhe"DR9 -4.79 dB -18.00 dB 1:27 ?-Christmas Oratorio, BWV 248, Pt. 2 "Cantata for the Second Day of Christmas": Chorale. "Wir singen dir in deinem Heer"DR10 -5.15 dB -16.54 dB 0:41 ?-Christmas Oratorio, BWV 248, Pt. 3 "Cantata for the Third Day of Christmas": Chorus. "Lasset uns nun gehen gen Bethlehem"DR9 -3.34 dB -15.29 dB 0:51 ?-Christmas Oratorio, BWV 248, Pt. 3 "Cantata for the Third Day of Christmas": Chorale. "Dies hat er allen uns getan"DR10 -3.62 dB -16.50 dB 1:20 ?-Christmas Oratorio, BWV 248, Pt. 3 "Cantata for the Third Day of Christmas": Chorale. "Ich will dich mit Fleiss bewahren"DR9 -4.64 dB -16.74 dB 0:56 ?-Christmas Oratorio, BWV 248, Pt. 3 "Cantata for the Third Day of Christmas": Chorale. "Seid froh dieweil"DR9 -3.80 dB -16.34 dB 2:09 ?-Christmas Oratorio, BWV 248, Pt. 3 "Cantata for the Third Day of Christmas": Chorus. "Herrscher des Himmels, erhöre das Lallen"DR11 -3.30 dB -19.36 dB 7:10 ?-Messe de minuit pour Noël, H. 1: GloriaDR12 -2.77 dB -20.59 dB 7:11 ?-Messe de minuit pour Noël, H. 1: KyrieDR12 -2.89 dB -20.66 dB 6:01 ?-Messe de minuit pour Noël, H. 1: SanctusDR12 -3.83 dB -21.75 dB 4:08 ?-Messe de minuit pour Noël, H. 1: Agnus DeiDR11 -2.13 dB -17.83 dB 5:53 ?-Messe de minuit pour Noël, H. 1: CredoDR12 -3.36 dB -21.02 dB 7:05 ?-Messe de minuit pour Noël, H. 1: OffertoireDR11 -0.79 dB -17.36 dB 2:30 ?-Noël des enfants qui n'ont plus de maisons, L. 139DR13 -5.90 dB -22.91 dB 6:25 ?-Une cantate de Noël: Ne craignez pointDR12 -2.28 dB -19.25 dB 7:01 ?-Une cantate de Noël: Laudate DominumDR12 -2.56 dB -19.26 dB 10:03 ?-Une cantate de Noël: De profundis clamaviDR12 -2.33 dB -18.23 dB 2:26 ?-Cycle de Noël: Introit. Ecce advenit in Mode IIDR13 -4.14 dB -21.70 dB 2:24 ?-Cycle de Noël: Graduel. Omnes de Saba in Mode VDR11 -1.09 dB -18.48 dB 1:26 ?-Cycle de Noël: Communion. Dicit Dominus in Mode VIDR12 -2.13 dB -18.95 dB 2:50 ?-Cycle de Noël: Introit. Viri Galilaei in Mode VIIDR11 -2.87 dB -18.87 dB 3:22 ?-Cycle de Noël: Jubilate in Mode I--------------------------------------------------------------------------------
Number of tracks: 27Official DR value: DR11
Samplerate: 96000 HzChannels: 2Bits per sample: 24Bitrate: 1234 kbpsCodec: FLAC================================================================================

Скриншот спектра частот

Доп. информация

Релиз полностью готов к воспроизведению в аудиоплеере (я ориентировался на foobar2000)При скачивании, если необходимо, переименуйте папку, в которой будет находиться альбомБольшая просьба к скачавшим поддерживать раздачу! Помогайте другим, ведь вам тоже может понадобиться помощь!Не забываем говорить "Спасибо"!Комментарии приветствуются!
[teatrix.ru].t11319.torrent 
Торрент: Зарегистрирован [ 2015-12-07 13:40 ] · 179A9FF47D6B6F168533E5ADACB953FD735BB94E

Скачать .torrent

Скачать

15 KB

Статус: проверено
Скачан: 0 раз
Размер: 1.25 GB
terms.php



Быстрый ответ

Имя:

      
Для отправки сообщений необходимо включить JavaScript
Показать сообщения:    

Текущее время: 05-Дек 07:31

Часовой пояс: UTC + 3


Вы можете начинать темы
Вы можете отвечать на сообщения
Вы не можете редактировать свои сообщения
Вы не можете удалять свои сообщения
Вы не можете голосовать в опросах
Вы не можете прикреплять файлы к сообщениям
Вы можете скачивать файлы