[TR24][OF] J.S. Bach - Das Wohltemperierte Klavier, Teil 1 (The Well-Tempered Clavier, Book I) - Pierre-Laurent Aimard - 2014 (Classical)


Статистика раздачи [Обновить пиров]
Размер:  1.79 GB   |    Зарегистрирован:  1 год   |    Скачан:  0 раз

Полного источника не было: Никогда

 
   
 
 
 

[Цитировать]

BACHTHE WELL-TEMPERED CLAVIER IPIERRE-LAURENT AIMARD- Год издания: 2014
Жанр: Classical
Издатель (лейбл): Deutsche Grammophon
Продолжительность: 01:52:31
Наличие сканов: Sleeve, Digital Booklet

-

-
Johann Sebastian Bach (1685-1750)
Pierre-Laurent Aimard (piano)
Recorded March 2014 at Funkhaus Berlin Nalepastraße in Berlin, Germany-Контейнер: FLAC (*.flac)
Тип рипа: tracks
Разрядность: 24bit / 96kHz
Количество каналов: 2.0

Треклист-The Well-Tempered Clavier, Book 1
Praeludium & Fuga (a 4 voci) BWV 846 in C major
01. Praeludium I (2:18)
02. Fuga I (2:10)
Praeludium & Fuga (a 3 voci) BWV 847 in C minor
03. Praeludium II (1:30)
04. Fuga II (1:46)
Praeludium & Fuga (a 3 voci) BWV 848 in C sharp major
05. Praeludium III (1:18)
06. Fuga III (2:31)
Praeludium & Fuga (a 5 voci) BWV 849 in C sharp minor
07. Praeludium IV (3:12)
08. Fuga IV (3:51)
Praeludium & Fuga (a 4 voci) BWV 850 in D major
09. Praeludium V (1:12)
10. Fuga V (1:53)
Praeludium & Fuga (a 3 voci) BWV 851 in D minor
11. Praeludium VI (1:30)
12. Fuga VI (2:05)
Praeludium & Fuga (a 3 voci) BWV 852 in E flat major
13. Praeludium VII (3:24)
14. Fuga VII (1:51)
Praeludium & Fuga (a 3 voci) BWV 853 in E flat minor
15. Praeludium VIII (3:53)
16. Fuga VIII (5:37)
Praeludium & Fuga (a 3 voci) BWV 854 in E major
17. Praeludium IX (1:19)
18. Fuga IX (1:08)
Praeludium & Fuga (a 2 voci) BWV 855 in E minor
19. Praeludium X (2:29)
20. Fuga X (1:34)
Praeludium & Fuga (a 3 voci) BWV 856 in F major
21. Praeludium XI (1:04)
22. Fuga XI (1:08)
Praeludium & Fuga (a 4 voci) BWV 857 in F minor
23. Praeludium XII (2:16)
24. Fuga XII (4:22)
Praeludium & Fuga (a 3 voci) BWV 858 in F sharp major
25. Praeludium XIII (1:34)
26. Fuga XIII (1:51)
Praeludium & Fuga (a 4 voci) BWV 859 in F sharp minor
27. Praeludium XIV (1:17)
28. Fuga XIV (3:43)
Praeludium & Fuga (a 3 voci) BWV 860 in G major
29. Praeludium XV (0:54)
30. Fuga XV (2:32)
Praeludium & Fuga (a 4 voci) BWV 861 in G minor
31. Praeludium XVI (2:13)
32. Fuga XVI (1:42)
Praeludium & Fuga (a 4 voci) BWV 862 in A flat major
33. Praeludium XVII (1:11)
34. Fuga XVII (1:59)
Praeludium & Fuga (a 4 voci) BWV 863 in G sharp minor
35. Praeludium XVIII (1:18)
36. Fuga XVIII (2:35)
Praeludium & Fuga (a 3 voci) BWV 864 in A major
37. Praeludium XIX (1:15)
38. Fuga XIX (2:05)
Praeludium & Fuga (a 4 voci) BWV 865 in A minor
39. Praeludium XX (1:03)
40. Fuga XX (5:10)
Praeludium & Fuga (a 3 voci) BWV 866 in B flat major
41. Praeludium XXI (1:22)
42. Fuga XXI (1:31)
Praeludium & Fuga (a 5 voci) BWV 867 in B flat minor
43. Praeludium XXII (2:21)
44. Fuga XXII (3:30)
Praeludium & Fuga (a 4 voci) BWV 868 in B major
45. Praeludium XXIII (1:11)
46. Fuga XXIII (2:08)
Praeludium & Fuga (a 4 voci) BWV 869 in B minor
47. Praeludium XXIV (5:51)
48. Fuga XXIV (6:59)-

О релизе


Virtuous and soulful
Pierre-Laurent Aimard again conquers the iconic keyboard repertoire by Johann Sebastian Bach after his hugely successful The Art of Fugue recording 2008. After The Art of Fugue which sold more than 60k worldwide this is another milestone in Aimard’s DG discography.
This double album includes the entire The Well-Tempered Clavier Book 1 and it will certainly be welcomed by his large number of fans and reviewers.
„Aimard has clearly thought deeply about the collection’s kaleidoscopic structure, but parts of its kaleidoscope suit him better than others. Playing of dancing glee or delicate sentiment continually rubs against patches unduly dry and detached. The F sharp minor fugue is a mysterious wonder, as if the music were feeling its way in the dark; the G major prelude sparkles with gaiety.“ (Geoff Brown, The Times London)
„Clarity of texture and of part-playing are the virtues which predominate, plus a cool atmosphere. Whether or not we think of these as characteristically French, they do bring rewards in Bach, of course; and yet the impression Aimard conveys is of Book 1 as a monument, even a scholastic tract.“ (Stephen Plaistow, Gramophone)
„His Bach is resolutely head-driven - and it's curious. His preeminently ascetic use of the sustaining pedal creates clarity tinged with dryness, yet he's prone to Romantically portentous rallentandos.” (BBC Music Magazine)

ОтчётыДинамический диапазон

foobar2000 1.2.2 / Dynamic Range Meter 1.1.1log date: 2014-12-23 03:19:40
--------------------------------------------------------------------------------Analyzed: Pierre-Laurent Aimard / J.S. Bach: The Well-Tempered Clavier, Book I--------------------------------------------------------------------------------
DR Peak RMS Duration Track--------------------------------------------------------------------------------DR10 -16.36 dB -30.58 dB 2:18 ?-Praeludium & Fuga (a 4 voci) BWV 846 in C major - Praeludium IDR11 -6.97 dB -21.36 dB 2:10 ?-Praeludium & Fuga (a 4 voci) BWV 846 in C major - Fuga IDR10 -6.57 dB -20.84 dB 1:30 ?-Praeludium & Fuga (a 3 voci) BWV 847 in C minor - Praeludium IIDR12 -6.38 dB -22.55 dB 1:46 ?-Praeludium & Fuga (a 3 voci) BWV 847 in C minor - Fuga IIDR12 -5.74 dB -23.69 dB 1:18 ?-Praeludium & Fuga (a 3 voci) BWV 848 in C sharp major - Praeludium IIIDR12 -8.27 dB -22.89 dB 2:31 ?-Praeludium & Fuga (a 3 voci) BWV 848 in C sharp major - Fuga IIIDR12 -10.33 dB -25.06 dB 3:12 ?-Praeludium & Fuga (a 5 voci) BWV 849 in C sharp minor - Praeludium IVDR13 -4.61 dB -22.33 dB 3:51 ?-Praeludium & Fuga (a 5 voci) BWV 849 in C sharp minor - Fuga IVDR12 -5.68 dB -20.69 dB 1:12 ?-Praeludium & Fuga (a 4 voci) BWV 850 in D major - Praeludium VDR13 -3.44 dB -19.48 dB 1:53 ?-Praeludium & Fuga (a 4 voci) BWV 850 in D major - Fuga VDR11 -8.79 dB -23.49 dB 1:30 ?-Praeludium & Fuga (a 3 voci) BWV 851 in D minor - Praeludium VIDR11 -7.49 dB -22.19 dB 2:05 ?-Praeludium & Fuga (a 3 voci) BWV 851 in D minor - Fuga VIDR12 -7.28 dB -22.14 dB 3:24 ?-Praeludium & Fuga (a 3 voci) BWV 852 in E flat major - Praeludium VIIDR12 -7.59 dB -22.22 dB 1:51 ?-Praeludium & Fuga (a 3 voci) BWV 852 in E flat major - Fuga VIIDR14 -6.31 dB -25.91 dB 3:53 ?-Praeludium & Fuga (a 3 voci) BWV 853 in E flat minor - Praeludium VIIIDR13 -6.75 dB -23.92 dB 5:37 ?-Praeludium & Fuga (a 3 voci) BWV 853 in E flat minor - Fuga VIIIDR11 -10.40 dB -24.28 dB 1:19 ?-Praeludium & Fuga (a 3 voci) BWV 854 in E major - Praeludium IXDR11 -6.66 dB -21.24 dB 1:08 ?-Praeludium & Fuga (a 3 voci) BWV 854 in E major - Fuga IXDR11 -6.69 dB -23.32 dB 2:29 ?-Praeludium & Fuga (a 2 voci) BWV 855 in E minor - Praeludium XDR10 -9.18 dB -21.73 dB 1:34 ?-Praeludium & Fuga (a 2 voci) BWV 855 in E minor - Fuga XDR11 -7.78 dB -22.82 dB 1:04 ?-Praeludium & Fuga (a 3 voci) BWV 856 in F major - Praeludium XIDR12 -7.85 dB -21.89 dB 1:08 ?-Praeludium & Fuga (a 3 voci) BWV 856 in F major - Fuga XIDR11 -9.05 dB -24.31 dB 2:16 ?-Praeludium & Fuga (a 4 voci) BWV 857 in F minor - Praeludium XIIDR11 -8.71 dB -24.59 dB 4:22 ?-Praeludium & Fuga (a 4 voci) BWV 857 in F minor - Fuga XIIDR11 -10.97 dB -24.56 dB 1:34 ?-Praeludium & Fuga (a 3 voci) BWV 858 in F sharp major - Praeludium XIIIDR11 -10.30 dB -23.74 dB 1:51 ?-Praeludium & Fuga (a 3 voci) BWV 858 in F sharp major - Fuga XIIIDR11 -10.02 dB -24.04 dB 1:17 ?-Praeludium & Fuga (a 4 voci) BWV 859 in F sharp minor - Praeludium XIVDR12 -9.57 dB -25.70 dB 3:43 ?-Praeludium & Fuga (a 4 voci) BWV 859 in F sharp minor - Fuga XIVDR10 -6.98 dB -21.41 dB 0:54 ?-Praeludium & Fuga (a 3 voci) BWV 860 in G major - Praeludium XVDR12 -5.13 dB -20.53 dB 2:32 ?-Praeludium & Fuga (a 3 voci) BWV 860 in G major - Fuga XVDR11 -9.21 dB -24.16 dB 2:13 ?-Praeludium & Fuga (a 4 voci) BWV 861 in G minor - Praeludium XVIDR12 -4.99 dB -20.93 dB 1:42 ?-Praeludium & Fuga (a 4 voci) BWV 861 in G minor - Fuga XVIDR11 -7.82 dB -22.56 dB 1:11 ?-Praeludium & Fuga (a 4 voci) BWV 862 in A flat major - Praeludium XVIIDR11 -9.48 dB -23.77 dB 1:59 ?-Praeludium & Fuga (a 4 voci) BWV 862 in A flat major - Fuga XVIIDR11 -8.52 dB -23.32 dB 1:18 ?-Praeludium & Fuga (a 4 voci) BWV 863 in G sharp minor - Praeludium XVIIIDR12 -8.30 dB -24.30 dB 2:35 ?-Praeludium & Fuga (a 4 voci) BWV 863 in G sharp minor - Fuga XVIIIDR11 -8.58 dB -23.04 dB 1:15 ?-Praeludium & Fuga (a 3 voci) BWV 864 in A major - Praeludium XIXDR11 -7.09 dB -22.07 dB 2:05 ?-Praeludium & Fuga (a 3 voci) BWV 864 in A major - Fuga XIXDR11 -7.08 dB -21.56 dB 1:03 ?-Praeludium & Fuga (a 4 voci) BWV 865 in A minor - Praeludium XXDR15 -0.41 dB -21.22 dB 5:10 ?-Praeludium & Fuga (a 4 voci) BWV 865 in A minor - Fuga XXDR13 -3.39 dB -21.11 dB 1:22 ?-Praeludium & Fuga (a 3 voci) BWV 866 in B flat major - Praeludium XXIDR12 -6.51 dB -20.76 dB 1:31 ?-Praeludium & Fuga (a 3 voci) BWV 866 in B flat major - Fuga XXIDR12 -8.95 dB -24.97 dB 2:21 ?-Praeludium & Fuga (a 5 voci) BWV 867 in B flat minor - Praeludium XXIIDR12 -8.56 dB -26.41 dB 3:30 ?-Praeludium & Fuga (a 5 voci) BWV 867 in B flat minor - Fuga XXIIDR10 -10.71 dB -24.35 dB 1:11 ?-Praeludium & Fuga (a 4 voci) BWV 868 in B major - Praeludium XXIIIDR12 -10.31 dB -24.90 dB 2:08 ?-Praeludium & Fuga (a 4 voci) BWV 868 in B major - Fuga XXIIIDR12 -7.95 dB -24.68 dB 5:51 ?-Praeludium & Fuga (a 4 voci) BWV 869 in B minor - Praeludium XXIVDR13 -7.17 dB -24.44 dB 6:59 ?-Praeludium & Fuga (a 4 voci) BWV 869 in B minor - Fuga XXIV--------------------------------------------------------------------------------
Number of tracks: 48Official DR value: DR12
Samplerate: 96000 HzChannels: 2Bits per sample: 24Bitrate: 2247 kbpsCodec: FLAC================================================================================

Скриншот спектра частот

Доп. информация

Релиз полностью готов к воспроизведению в аудиоплеере (я ориентировался на foobar2000)При скачивании, если необходимо, переименуйте папку, в которой будет находиться альбомБольшая просьба к скачавшим поддерживать раздачу! Помогайте другим, ведь вам тоже может понадобиться помощь!Не забываем говорить "Спасибо"!Комментарии приветствуются!
[teatrix.ru].t11320.torrent 
Торрент: Зарегистрирован [ 2015-12-07 13:40 ] · 5BC85AAD8A133AC138F0FD03C6FC53461737855F

Скачать .torrent

Скачать

24 KB

Статус: проверено
Скачан: 0 раз
Размер: 1.79 GB
terms.php



Быстрый ответ

Имя:

      
Для отправки сообщений необходимо включить JavaScript
Показать сообщения:    

Текущее время: 11-Дек 12:59

Часовой пояс: UTC + 3


Вы можете начинать темы
Вы можете отвечать на сообщения
Вы не можете редактировать свои сообщения
Вы не можете удалять свои сообщения
Вы не можете голосовать в опросах
Вы не можете прикреплять файлы к сообщениям
Вы можете скачивать файлы