[TR24][OF] Albrecht Mayer & The King's Singers - Let It Snow! - 2013 (Classical, Vocal)


Статистика раздачи [Обновить пиров]
Размер:  1.24 GB   |    Зарегистрирован:  1 год   |    Скачан:  0 раз

Полного источника не было: Никогда

 
   
 
 
 

[Цитировать]

Albrecht Mayer & The King's Singers
Let It Snow!
- Год издания: 2013
Жанр: Classical, Vocal
Издатель (лейбл): Deutsche Grammophon
Продолжительность: 01:08:39
Наличие сканов: Sleeve, Digital Booklet
- -
01. Let It Snow (4:47)
Jule Styne; Albrecht Mayer; The King's Singers
02. The Four Seasons - Winter (2:30)
Antonio Vivaldi; Albrecht Mayer; The King's Singers
03. Es ist ein Ros' entsprungen (3:35)
Michael Praetorius; Albrecht Mayer; The King's Singers
04. Jingle Bells (1:43)
James Lord Pierpont; Albrecht Mayer; The King's Singers
05. What Child Is This (3:20)
Traditional; Albrecht Mayer; The King's Singers
06. Christmas Oratorio, BWV 248 / Part 2 - Sinfonia (5:08)
Johann Sebastian Bach; Albrecht Mayer; Beni Araki
07. The Wild Wood Carol (3:16)
John Rutter; Albrecht Mayer; The King's Singers
08. Winterreise, D.911 - Frühlingstraum (3:59)
Franz Schubert; Albrecht Mayer; The King's Singers
09. Sérénade d’Hiver (5:28)
Camille Saint-Saëns; Albrecht Mayer; The King's Singers
10. Adagio (7:03)
Tomaso Albinoni; Remo Giazotto; Albrecht Mayer; The King's Singers
11. Baby, It's Cold Outside (4:53)
Frank Loesser; Albrecht Mayer; The King's Singers
12. She Moved Through The Fair (6:30)
Traditional; Albrecht Mayer; The King's Singers
13. Aleih Neiri (3:52)
Chaim Parchi; Albrecht Mayer; The King's Singers
14. Suite No.4 In D Minor For Harpsichord, HWV 437 - Sarabande (2:04)
George Frideric Handel; Albrecht Mayer
15. Cantata BWV 147, No.10 - Jesu bleibet meine Freude (3:11)
Johann Sebastian Bach; Albrecht Mayer; The King's Singers
16. The Little Drummer Boy (3:11)
Katherine K. Davis; Henry V. Onorati; Harry Simeone; Albrecht Mayer; The King's Singers
17. Hänsel und Gretel - Abends will ich schlafen gehn (4:07)
Engelbert Humperdinck; Albrecht Mayer; The King's Singers
-Albrecht Mayer, oboe
The King’s Singers:
David Hurley, countertenor
Timothy Wayne-Wright, countertenor
Paul Phoenix, tenor
Christopher Bruerton, baritone
Christopher Gabbitas, baritone
Jonathan Howard, bass
Beni Araki, harpsichord & organ (on track 6)
-Контейнер: FLAC (*.flac)
Тип рипа: tracks
Разрядность: 24bit / 96kHz
Количество каналов: 2.0
-Отчёты

Динамический диапазон

foobar2000 1.2.2 / Замер динамического диапазона (DR) 1.1.1Дата отчёта: 2014-12-22 13:07:15
--------------------------------------------------------------------------------Анализ: Albrecht Mayer & Beni Araki / Let It Snow (1) Albrecht Mayer & The King's Singers / Let It Snow (2-16) Albrecht Mayer / Let It Snow (17)--------------------------------------------------------------------------------
DR Пики RMS Продолжительность трека--------------------------------------------------------------------------------DR12 -0.70 дБ -15.88 дБ 5:08 ?-Christmas Oratorio, BWV 248 / Part 2 - SinfoniaDR10 -0.56 дБ -14.81 дБ 4:47 ?-Let It SnowDR12 -0.70 дБ -16.71 дБ 2:30 ?-The Four Seasons - WinterDR13 -0.53 дБ -18.23 дБ 3:35 ?-Es ist ein Ros' entsprungenDR12 -0.37 дБ -15.35 дБ 1:43 ?-Jingle BellsDR14 -2.21 дБ -20.47 дБ 3:20 ?-What Child Is ThisDR10 -0.59 дБ -16.23 дБ 3:16 ?-The Wild Wood CarolDR13 -0.27 дБ -17.51 дБ 3:59 ?-Winterreise, D.911 - FrühlingstraumDR12 -0.45 дБ -16.74 дБ 5:28 ?-Sérénade d’HiverDR12 -0.64 дБ -16.51 дБ 7:03 ?-AdagioDR10 -0.56 дБ -15.05 дБ 4:53 ?-Baby, It's Cold OutsideDR11 -4.49 дБ -20.27 дБ 6:30 ?-She Moved Through The FairDR10 -0.64 дБ -16.19 дБ 3:52 ?-Aleih NeiriDR11 -0.61 дБ -14.47 дБ 3:11 ?-Cantata BWV 147, No.10 - Jesu bleibet meine FreudeDR13 -0.59 дБ -18.31 дБ 3:11 ?-The Little Drummer BoyDR9 -0.55 дБ -14.99 дБ 4:07 ?-Hänsel und Gretel - Abends will ich schlafen gehnDR10 -0.65 дБ -15.32 дБ 2:04 ?-Suite No.4 In D Minor For Harpsichord, HWV 437 - Sarabande--------------------------------------------------------------------------------
Количество треков: 17Реальные значения DR: DR11
Частота: 96000 ГцКаналов: 2Разрядность: 24Битрейт: 2523 кбит/сКодек: FLAC================================================================================

Скриншот спектра частот

Доп. информация

Релиз полностью готов к воспроизведению в аудиоплеере (я ориентировался на foobar2000)При скачивании, если необходимо, переименуйте папку, в которой будет находиться альбомБольшая просьба к скачавшим поддерживать раздачу! Помогайте другим, ведь вам тоже может понадобиться помощь!Не забываем говорить "Спасибо"!Комментарии приветствуются!
[teatrix.ru].t11321.torrent 
Торрент: Зарегистрирован [ 2015-12-07 13:40 ] · A5BD3F5E3C36559637DD6B17C41A852B7805D29A

Скачать .torrent

Скачать

14 KB

Статус: проверено
Скачан: 0 раз
Размер: 1.24 GB
terms.php



Быстрый ответ

Имя:

      
Для отправки сообщений необходимо включить JavaScript
Показать сообщения:    

Текущее время: 10-Дек 21:31

Часовой пояс: UTC + 3


Вы можете начинать темы
Вы можете отвечать на сообщения
Вы не можете редактировать свои сообщения
Вы не можете удалять свои сообщения
Вы не можете голосовать в опросах
Вы не можете прикреплять файлы к сообщениям
Вы можете скачивать файлы