[TR24][OF] Claude Debussy: La mer & Igor Stravinsky: The Firebird / Игорь Стравинский: Жар-птица (Los Angeles Philharmonic, Gustavo Dudamel) - 2014 (Classical)


Статистика раздачи [Обновить пиров]
Размер:  1.21 GB   |    Зарегистрирован:  1 год   |    Скачан:  0 раз

Полного источника не было: Никогда

 
   
 
 
 

[Цитировать]

Claude Debussy: La mer
Igor Stravinsky: The Firebird
Los Angeles Philharmonic, Gustavo Dudamel- Год издания: 2014
Жанр: Classical
Издатель (лейбл): Deutsche Grammophon
Продолжительность: 01:15:52
Наличие сканов: Sleeve, Digital Booklet
- -
Claude Debussy (1862-1918)
La Mer, L. 109
01. I. From Dawn Till Noon On The Sea (De l'aube à midi sur la mer) (9:52)
02. II. Play Of The Waves (Jeux de vagues) (7:14)
03. III. Dialogue Of The Wind And The Sea (Dialogue du vent et de la mer) (8:59)
Igor Stravinsky (1882-1971)
The Firebird - Ballet
Introduction
04. Introduction (2:48)
Tableau I
05. Kastchei's Enchanted Garden (1:59)
06. Appearance Of The Firebird, Pursued By Ivan Tsarevich (2:22)
07. Dance Of The Firebird (1:31)
08. Capture Of The Firebird By Ivan Tsarevitch (7:15)
09. The Firebird's Entreaties, Appearance Of The Thirteen Enchanted Princesses (2:32)
10. The Princesses Game With The Golden Apples (2:24)
11. Sudden Appearance Of Ivan Tsarevitch (1:30)
12. Round Dance Of The Princesses (4:57)
13. Sunrise, Ivan Tsarevitch Enters Kastchei's Palace (1:33)
14. Magic Carillon, Appearance Of Kastchei's Monsters, And the Capture Of Ivan Tsarevitch - Appearance Of The Firebird (5:43)
15. Dance Of Kastchei's Court, Bewitched By The Firebird (0:45)
16. Infernal Dance Of Kastchei's Subjects (4:37)
17. Lullaby (The Firebird) - Kastchei's Death; Darkness (5:49)
Tableau II
18. The Palace And Creatures Of Kastchei Disappear. The Petrified Knights Come To Life. General Rejoicing. (4:02)
-Los Angeles Philharmonic
Gustavo Dudamel, conductor
Performed live in Walt Disney Concert Hall
February 28, March 1-3, 2013
-Контейнер: FLAC (*.flac)
Тип рипа: tracks
Разрядность: 24bit / 96kHz
Количество каналов: 2.0
-Отчёты

Динамический диапазон

foobar2000 1.2.2 / Замер динамического диапазона (DR) 1.1.1Дата отчёта: 2014-12-21 22:35:33
--------------------------------------------------------------------------------Анализ: Los Angeles Philharmonic, Gustavo Dudamel / Debussy: La mer / Stravinsky: The Firebird--------------------------------------------------------------------------------
DR Пики RMS Продолжительность трека--------------------------------------------------------------------------------DR19 -0.47 дБ -27.10 дБ 9:52 ?-La Mer, L. 109 - I. From Dawn Till Noon On The Sea (De l'aube à midi sur la mer)DR14 -8.81 дБ -29.51 дБ 7:14 ?-La Mer, L. 109 - II. Play Of The Waves (Jeux de vagues)DR17 -0.24 дБ -23.29 дБ 8:59 ?-La Mer, L. 109 - III. Dialogue Of The Wind And The Sea (Dialogue du vent et de la mer)DR9 -23.06 дБ -37.71 дБ 2:48 ?-The Firebird - IntroductionDR13 -18.31 дБ -38.68 дБ 1:59 ?-The Firebird, Tableau I - Kastchei's Enchanted GardenDR14 -13.32 дБ -34.25 дБ 2:22 ?-The Firebird, Tableau I - Appearance Of The Firebird, Pursued By Ivan TsarevichDR15 -12.39 дБ -31.74 дБ 1:31 ?-The Firebird, Tableau I - Dance Of The FirebirdDR13 -15.22 дБ -34.81 дБ 7:15 ?-The Firebird, Tableau I - Capture Of The Firebird By Ivan TsarevitchDR14 -19.11 дБ -38.24 дБ 2:32 ?-The Firebird, Tableau I - The Firebird's Entreaties, Appearance Of The Thirteen Enchanted PrincessesDR13 -15.50 дБ -33.62 дБ 2:24 ?-The Firebird, Tableau I - The Princesses Game With The Golden ApplesDR9 -26.42 дБ -39.14 дБ 1:30 ?-The Firebird, Tableau I - Sudden Appearance Of Ivan TsarevitchDR13 -13.70 дБ -34.81 дБ 4:57 ?-The Firebird, Tableau I - Round Dance Of The PrincessesDR12 -13.29 дБ -33.04 дБ 1:33 ?-The Firebird, Tableau I - Sunrise, Ivan Tsarevitch Enters Kastchei's PalaceDR18 -0.27 дБ -24.28 дБ 5:43 ?-The Firebird, Tableau I - Magic Carillon, Appearance Of Kastchei's Monsters, And the Capture Of Ivan Tsarevitch - Appearance Of The FirebirdDR10 -9.42 дБ -25.67 дБ 0:45 ?-The Firebird, Tableau I - Dance Of Kastchei's Court, Bewitched By The FirebirdDR13 -0.13 дБ -19.28 дБ 4:37 ?-The Firebird, Tableau I - Infernal Dance Of Kastchei's SubjectsDR19 -0.29 дБ -27.40 дБ 5:49 ?-The Firebird, Tableau I - Lullaby (The Firebird) - Kastchei's Death; DarknessDR13 -0.25 дБ -18.85 дБ 4:02 ?-The Firebird, Tableau II - The Palace And Creatures Of Kastchei Disappear. The Petrified Knights Come To Life. General Rejoicing.--------------------------------------------------------------------------------
Количество треков: 18Реальные значения DR: DR14
Частота: 96000 ГцКаналов: 2Разрядность: 24Битрейт: 2586 кбит/сКодек: FLAC================================================================================

Скриншот спектра частот

Доп. информация

Релиз полностью готов к воспроизведению в аудиоплеере (я ориентировался на foobar2000)При скачивании, если необходимо, переименуйте папку, в которой будет находиться альбомБольшая просьба к скачавшим поддерживать раздачу! Помогайте другим, ведь вам тоже может понадобиться помощь!Не забываем говорить "Спасибо"!Комментарии приветствуются!
Los Angeles Philharmonic Hi-Res
[teatrix.ru].t11322.torrent 
Торрент: Зарегистрирован [ 2015-12-07 13:40 ] · F379794C9E72B02ECA76762A7564C4C81F88B5C6

Скачать .torrent

Скачать

15 KB

Статус: проверено
Скачан: 0 раз
Размер: 1.21 GB
terms.php



Быстрый ответ

Имя:

      
Для отправки сообщений необходимо включить JavaScript
Показать сообщения:    

Текущее время: 08-Дек 17:24

Часовой пояс: UTC + 3


Вы можете начинать темы
Вы можете отвечать на сообщения
Вы не можете редактировать свои сообщения
Вы не можете удалять свои сообщения
Вы не можете голосовать в опросах
Вы не можете прикреплять файлы к сообщениям
Вы можете скачивать файлы