Приют комедиантов. Выпуск 33. Дебюты (Сергей Варновский) [2012, Капустник, SATRip]


Статистика раздачи [Обновить пиров]
Размер:  1.1 GB   |    Зарегистрирован:  1 год   |    Скачан:  0 раз

Полного источника не было: Никогда

 
   
 
 
 

[Цитировать]

Приют комедиантов. Выпуск 33. Дебюты
Жанр: Капустник
Год выпуска: 2012
Производство: ООО "Эксклюзив ТВ".
Продолжительность: 01:29:53
Режиссёр: Сергей Варновский
Ведущие: Екатерина Уфимцева, Михаил Швыдкой
Участники выпуска: Валерий Баринов, Валерий Гаркалин, Лариса Голубкина, Эвклид Кюрдзидис, Михаил Турецкий, Юрий Васильев, Алена Яковлева, Ирина Лачина, Марина Могилевская, Левон Оганезов, Евдокия Германова, Татьяна Устинова, Гедиминас Таранда, Сергей Шустицкий, Алексей Панин и другие
Описание: Этот выпуск программы "Приют комедиантов" посвящен дебютам.
Какими они были у звездных гостей программы?
Как Валерий Гаркалин сначала обидел великого кукольника Сергея Образцова, а затем довел его до хохота во время своего дебюта в Театре кукол? Каким был первый гонорар шестилетнего Валерия Баринова? Все звезды, вспоминая смешные истории о своем "старте", сходятся в одном: никогда не нужно страшиться пробовать в своей жизни что-то новое!
Доп. информация: Премьерный телеэфир 30 марта 2012 г.
Семпл: http://multi-up.com/677665
Качество видео: SATRip
Формат видео: AVI
Аудио кодек: MP3
Видео кодек: XviD
Видео: 704x528 (1.33:1), 25 fps, XviD build 50 ~1548 kbps avg, 0.17 bit/pixel
Аудио: 48 kHz, MPEG Layer 3, 2 ch, ~192.00 kbps avg

MediaInfo

Общее
Полное имя :33.Prijut.komediantov.Debuty.Satrip.by.igor0mr.avi
Формат : AVI
Формат/Информация : Audio Video Interleave
Профиль формата : OpenDML
Размер файла : 1,10 Гбайт
Продолжительность : 1 ч. 29 м.
Общий поток : 1748 Кбит/сек
Программа кодирования : MEncoder SVN-r30881(20100311-gcc4.3.3)
Библиотека кодирования : MPlayer
Видео
Идентификатор : 0
Формат : MPEG-4 Visual
Профиль формата : Advanced Simple@L5
Параметр BVOP формата : 2
Параметр QPel формата : Нет
Параметр GMC формата : Без точки перехода
Параметр матрицы формата : Default (H.263)
Идентификатор кодека : XVID
Идентификатор кодека/Подсказка : XviD
Продолжительность : 1 ч. 29 м.
Битрейт : 1540 Кбит/сек
Ширина : 704 пикселя
Высота : 528 пикселей
Соотношение сторон : 4:3
Частота кадров : 25,000 кадров/сек
Цветовое пространство : YUV
Субдискретизация насыщенности : 4:2:0
Битовая глубина : 8 бит
Тип развёртки : Прогрессивная
Метод сжатия : С потерями
Бит/(Пиксели*Кадры) : 0.166
Размер потока : 990 Мбайт (88%)
Библиотека кодирования : XviD 1.2.1 (UTC 2008-12-04)
Аудио
Идентификатор : 1
Формат : MPEG Audio
Версия формата : Version 1
Профиль формата : Layer 3
Режим : Joint stereo
Расширение режима : MS Stereo
Идентификатор кодека : 55
Идентификатор кодека/Подсказка : MP3
Продолжительность : 1 ч. 29 м.
Вид битрейта : Постоянный
Битрейт : 192 Кбит/сек
Каналы : 2 канала
Частота : 48,0 КГц
Метод сжатия : С потерями
Задержка видео : 40 мс.
Размер потока : 123 Мбайт (11%)
Выравнивание : Соединение по промежуткам
Продолжительность промежутка : 24 мс. (0,60 видеокадр)
Время предзагрузки промежутка : 504 мс.

СкриншотыСкриншот с названием




[teatrix.ru].t11408.torrent 
Торрент: Зарегистрирован [ 2015-12-07 17:45 ] · 378D41D529E1ED1DF39BA71CBF3475928A866967

Скачать .torrent

Скачать

12 KB

Статус: проверено
Скачан: 0 раз
Размер: 1.1 GB
terms.php



Быстрый ответ

Имя:

      
Для отправки сообщений необходимо включить JavaScript
Показать сообщения:    

Текущее время: 11-Дек 15:00

Часовой пояс: UTC + 3


Вы можете начинать темы
Вы можете отвечать на сообщения
Вы не можете редактировать свои сообщения
Вы не можете удалять свои сообщения
Вы не можете голосовать в опросах
Вы не можете прикреплять файлы к сообщениям
Вы можете скачивать файлы