''Каждый выбирает для себя...'' Елена Камбурова приглашает (Виктор Спиридонов) [2010 г., Телеверсия вечера, TVRip]


Статистика раздачи [Обновить пиров]
Размер:  3 GB   |    Зарегистрирован:  1 год   |    Скачан:  0 раз

Полного источника не было: Никогда

 
   
 
 
 

[Цитировать]

''Каждый выбирает для себя...'' Елена Камбурова приглашаетВечер в театре музыки и поэзии Елены Камбуровой Год выпуска: 2010
Выпущено: ГТРК "Культура"
Жанр: Телеверсия вечера
Продолжительность: 01:29:23
Режиссер: Виктор Спиридонов
Оператор: Ефим Рацимор
Музыкальное сопровождение: Олег Синкин (фортепиано, клавишные), Вячеслав Голиков (гитара)
Ведущий вечера: Вениамин Смехов
Описание:
Вечер, посвященный народной артистке России Елене Камбуровой, состоялся в ее театре в июне 2010 года.
В гости к Елене Камбуровой пришли известные деятели отечественной культуры. Гости пели песни и романсы, читали стихи, делились воспоминаниями, обменивались впечатлениями. Все они были объединены общим чувством уважения и признательности к Елене Камбуровой.
В вечере принимали участие:
Эльдар Рязанов, Алексей Петренко, Александр Филиппенко, Инна Чурикова, Ольга Остроумова, Дмитрий Харатьян, Константин Райкин, Владимир Дашкевич, Александр Градский, Игорь Иртеньев, Юрий Рост, Юрий Норштейн, Андрей Макаревич, Нина Дробышева, Никита Высоцкий, Валерий Белякович, Андрей Хржановский, матушка Ксения (игуменья коломенского Новоголутвина монастыря).
Качество: TVRip
Формат: DVD Video
Видео кодек: MPEG2
Аудио кодек: AC3
Видео: 720x576 (4:3), 25 fps, MPEG-2 ~4467 (max 9400) Kbps VBR
Аудио: 48 KHz, AC-3, 2 ch (mono), 256 Kbps CBR

MediaInfo (Media Player Classic)

General
Complete name : G:\Мои раздачи\Video\''Каждый выбирает для себя...'' Елена Камбурова приглашает\VIDEO_TS\VTS_01_1.VOB
Format : MPEG-PS
File size : 1 024 MiB
Duration : 29mn 42s
Overall bit rate mode : Variable
Overall bit rate : 4 819 Kbps
Writing library : (c) 1998-2011 Womble Multimedia, Inc. / MPEG Video Wizard DVD 5.0.1.100 (03/2011) / May 27 2011
Video
ID : 224 (0xE0)
Format : MPEG Video
Format version : Version 2
Format profile : Main@Main
Format settings, BVOP : Yes
Format settings, Matrix : Custom
Format settings, GOP : M=3, N=12
Duration : 29mn 42s
Bit rate mode : Variable
Bit rate : 4 467 Kbps
Maximum bit rate : 9 400 Kbps
Width : 720 pixels
Height : 576 pixels
Display aspect ratio : 4:3
Frame rate : 25.000 fps
Standard : PAL
Color space : YUV
Chroma subsampling : 4:2:0
Bit depth : 8 bits
Scan type : Interlaced
Scan order : Top Field First
Compression mode : Lossy
Bits/(Pixel*Frame) : 0.431
Stream size : 949 MiB (93%)
Writing library : (c) 1998-2011 Womble Multimedia, Inc. / MPEG Video Wizard DVD 5.0.1.100 (03/2011) / May 27 2011
Audio
ID : 189 (0xBD)-128 (0x80)
Format : AC-3
Format/Info : Audio Coding 3
Mode extension : CM (complete main)
Muxing mode : DVD-Video
Duration : 29mn 42s
Bit rate mode : Constant
Bit rate : 256 Kbps
Channel(s) : 2 channels
Channel positions : Front: L R
Sampling rate : 48.0 KHz
Bit depth : 16 bits
Compression mode : Lossy
Delay relative to video : -80ms
Stream size : 54.4 MiB (5%)

Скриншоты

Меню DVD

От себя:
Передачу посмотрел недавно по Культуре, очень понравилась, захотелось сохранить. Понял, что официально хотя-бы на DVD она вряд-ли появится, поэтому решил сделать DVD сам. Сделал, решил поделиться, может кому понадобится... Уж очень хороший был вечер!
Для создания DVD использовал:
Оцифровка: DVD рекордер SONY RDR-AT100
Обрезка: MPEG Video Wizard DVD 5.0
Авторинг: Adobe Encore CS5.1
[teatrix.ru].t11420.torrent 
Торрент: Зарегистрирован [ 2015-12-07 17:45 ] · 8A2D215CCB6A36111049F74362903DA297C86A2F

Скачать .torrent

Скачать

16 KB

Статус: проверено
Скачан: 0 раз
Размер: 3 GB
terms.php



Быстрый ответ

Имя:

      
Для отправки сообщений необходимо включить JavaScript
Показать сообщения:    

Текущее время: 10-Дек 10:01

Часовой пояс: UTC + 3


Вы можете начинать темы
Вы можете отвечать на сообщения
Вы не можете редактировать свои сообщения
Вы не можете удалять свои сообщения
Вы не можете голосовать в опросах
Вы не можете прикреплять файлы к сообщениям
Вы можете скачивать файлы