Воспоминание (Владимир Савельев) [1986, драма, музыка, DVB]


Статистика раздачи [Обновить пиров]
Размер:  1.46 GB   |    Зарегистрирован:  1 год   |    Скачан:  0 раз

Полного источника не было: Никогда

 
   
 
 
 

[Цитировать]

Воспоминание
Год выпуска: 1986
Страна: СССР, Киностудия им. А.П. Довженко
Жанр: драма, музыка
Продолжительность: 01:05:00
Перевод: Не требуется
Русские субтитры: нет
Режиссер: Владимир Савельев
Описание: Этот фильм – дань памяти В.Высоцкому. В нем принимает участие Елена Камбурова, звучат песни поэта, присутствует хроника, видеоматериалы, выступления певца, встречи с журналистами.
Доп. информация: VHSRip: http://teatrix.ru/viewtopic.php?t=11428
КиноПоиск: 8.727/10 (11)

MI

General
Complete name : C:Воспоминание.1986_DVB_by_ItarTass.mpg
Format : MPEG-PS
File size : 1.46 GiB
Duration : 1h 5mn
Overall bit rate mode : Variable
Overall bit rate : 3 166 Kbps
Video
ID : 224 (0xE0)
Format : MPEG Video
Format version : Version 2
Format profile : Main@Main
Format settings, BVOP : Yes
Format settings, Matrix : Custom
Format settings, GOP : M=4, N=25
Duration : 1h 5mn
Bit rate mode : Variable
Bit rate : 2 911 Kbps
Maximum bit rate : 15.0 Mbps
Width : 544 pixels
Height : 576 pixels
Display aspect ratio : 4:3
Frame rate : 25.000 fps
Color space : YUV
Chroma subsampling : 4:2:0
Bit depth : 8 bits
Scan type : Interlaced
Scan order : Top Field First
Compression mode : Lossy
Bits/(Pixel*Frame) : 0.372
Stream size : 1.34 GiB (92%)
Audio
ID : 192 (0xC0)
Format : MPEG Audio
Format version : Version 1
Format profile : Layer 2
Duration : 1h 5mn
Bit rate mode : Constant
Bit rate : 192 Kbps
Channel(s) : 2 channels
Sampling rate : 48.0 KHz
Compression mode : Lossy
Stream size : 90.4 MiB (6%)
Качество: DVB
Формат: PS
Видео кодек: MPEG2
Аудио кодек: MPEG1
Видео: MPEG2 Video 544x576 (4:3) 25.00fps, 2 911 Kbps, 0.372 bit/pixel
Аудио: MPEG Audio 48000Hz stereo 192 Кбит/сек

Скриншоты

[teatrix.ru].t11422.torrent 
Торрент: Зарегистрирован [ 2015-12-07 17:45 ] · CB99BEC0582E5F89E70ECE8FD0D3A0019676BCD2

Скачать .torrent

Скачать

15 KB

Статус: проверено
Скачан: 0 раз
Размер: 1.46 GB
terms.php



Быстрый ответ

Имя:

      
Для отправки сообщений необходимо включить JavaScript
Показать сообщения:    

Текущее время: 10-Дек 04:13

Часовой пояс: UTC + 3


Вы можете начинать темы
Вы можете отвечать на сообщения
Вы не можете редактировать свои сообщения
Вы не можете удалять свои сообщения
Вы не можете голосовать в опросах
Вы не можете прикреплять файлы к сообщениям
Вы можете скачивать файлы