Театральные встречи [1980 г., Телевизионная передача, SATRip]


Статистика раздачи [Обновить пиров]
Размер:  1.37 GB   |    Зарегистрирован:  11 месяцев   |    Скачан:  0 раз

Полного источника не было: Никогда

 
   
 
 
 

[Цитировать]

Театральные встречи
Год выпуска: 1980
Жанр: Телевизионная передача
Продолжительность: 01:36:03
Ведущие: Андрей Миронов и Евгения Симонова
Участвуют: Ю.Богатырев, Д.Журавлев, И.Толчанов, Е.Симонова, В.Этуш, Ю.Яковлев и др.
Доп. информация: Проигрывается на старых плеерах
Качество: SATRip
Формат: AVI
Видео кодек: DivX
Аудио кодек: MP3
Видео: DivX 5; 624x480 (1,300); 1878 Kbps; 25.000 fps; 0,251 bpp
Аудио: MPEG Audio Layer 3 48000Hz stereo 150kbps

Скриншоты

MediaInfo

ОбщееПолное имя : D:\Релизы\Театральные встречи.aviФормат : AVIФормат/Информация : Audio Video InterleaveРазмер файла : 1,37 ГбайтПродолжительность : 1 ч. 36 м.Режим общего битрейта : ПеременныйОбщий поток : 2042 Кбит/секПрограмма кодирования : VirtualDubMod 1.5.10.3 | www.virtualdub-fr.org || (build 2550/release)Библиотека кодирования : VirtualDubMod build 2550/release
ВидеоИдентификатор : 0Формат : MPEG-4 VisualПрофиль формата : Advanced Simple@L5Параметр BVOP формата : 2Параметр QPel формата : НетПараметр GMC формата : Без точки переходаПараметр матрицы формата : Default (MPEG)Идентификатор кодека : DX50Идентификатор кодека/Подсказка : DivX 5Продолжительность : 1 ч. 36 м.Битрейт : 1878 Кбит/секШирина : 624 пикселяВысота : 480 пикселейСоотношение сторон : 1,300Частота кадров : 25,000 кадров/секЦветовое пространство : YUVСубдискретизация насыщенности : 4:2:0Битовая глубина : 8 битТип развёртки : ПрогрессивнаяМетод сжатия : С потерямиБит/(Пиксели*Кадры) : 0.251Размер потока : 1,26 Гбайт (92%)Библиотека кодирования : XviD 1.2.1 (UTC 2008-12-04)
АудиоИдентификатор : 1Формат : MPEG AudioВерсия формата : Version 1Профиль формата : Layer 3Идентификатор кодека : 55Идентификатор кодека/Подсказка : MP3Продолжительность : 1 ч. 36 м.Вид битрейта : ПеременныйБитрейт : 151 Кбит/секМинимальный битрейт : 32,0 Кбит/секКаналы : 2 каналаЧастота : 48,0 КГцМетод сжатия : С потерямиЗадержка видео : 72 мс.Размер потока : 103 Мбайт (7%)Выравнивание : Разделение по промежуткамПродолжительность промежутка : 24 мс. (0,60 видеокадр)Время предзагрузки промежутка : 601 мс.Библиотека кодирования : L3.99rНастройки программы : -m s -V 4 -q 0 -lowpass 17.5 --vbr-new -b 32
[teatrix.ru].t11427.torrent 
Торрент: Зарегистрирован [ 2015-12-07 17:45 ] · A88097000AA21CAD49D2B0F82EA9F49919F90E7C

Скачать .torrent

Скачать

14 KB

Статус: проверено
Скачан: 0 раз
Размер: 1.37 GB
terms.php



Быстрый ответ

Имя:

      
Для отправки сообщений необходимо включить JavaScript
Показать сообщения:    

Текущее время: 07-Дек 13:37

Часовой пояс: UTC + 3


Вы можете начинать темы
Вы можете отвечать на сообщения
Вы не можете редактировать свои сообщения
Вы не можете удалять свои сообщения
Вы не можете голосовать в опросах
Вы не можете прикреплять файлы к сообщениям
Вы можете скачивать файлы