Встречи с Евгением Евстигнеевым (Ион Унгуряну) [1977 г., художественно-документальный, TVRip]


Статистика раздачи [Обновить пиров]
Размер:  2.68 GB   |    Зарегистрирован:  1 год   |    Скачан:  0 раз

Полного источника не было: Никогда

 
   
 
 
 

[Цитировать]

Встречи с Евгением Евстигнеевым
Год выпуска: 1977
Жанр: художественно-документальный
Продолжительность: 01:28:06
Режиссер: Ион Унгуряну
В ролях: О. Ефремов, М. Ульянов, С. Юрский, М. Рощин и др.
Описание: Документальный фильм о народном артисте СССР Евгении Евстигнееве. В фильме представленны отрывки из спектаклей и фильмов с участием артиста.
Качество видео: TVRip
Формат видео: MPEG2
Видео: MPEG2 Video 720x576 (4:3) 25.00fps 5806 Кбит/сек
Аудио: MPEG Audio 48000Hz stereo192kbps

MediaInfo

Общее
Полное имя : D:\TORENT4\Evstigneev.1977.mpg
Формат : MPEG-PS
Размер файла : 2,68 Гбайт
Продолжительность : 1 ч. 28 м.
Общий поток : 4349 Кбит/сек
Видео
Идентификатор : 224 (0xE0)
Формат : MPEG Video
Версия формата : Version 2
Профиль формата : Main@Main
Параметр BVOP формата : Да
Параметр матрицы формата : По умолчанию
Продолжительность : 1 ч. 28 м.
Вид битрейта : Переменный
Битрейт : 4071 Кбит/сек
Номинальный битрейт : 9282 Кбит/сек
Ширина : 720 пикс.
Высота : 576 пикс.
Соотношение сторон : 4:3
Частота кадров : 25,000 кадр/сек
Стандарт вещания : PAL
Цветовое пространство : YUV
Подвыборка цветности : 4:2:0
Битовая глубина : 8 бит
Тип развёртки : Чересстрочная
Порядок развёртки : Верхнее поле первое
Метод сжатия : С потерями
Бит/(Пиксели*Кадры) : 0.393
Размер потока : 2,50 Гбайт (94%)
Аудио
Идентификатор : 192 (0xC0)
Формат : MPEG Audio
Версия формата : Version 1
Профиль формата : Layer 2
Продолжительность : 1 ч. 28 м.
Вид битрейта : Постоянный
Битрейт : 192 Кбит/сек
Каналы : 2 канала
Частота : 48,0 КГц
Метод сжатия : С потерями
Размер потока : 121 Мбайт (4%)

Скриншоты

[teatrix.ru].t11433.torrent 
Торрент: Зарегистрирован [ 2015-12-07 17:45 ] · 2164A70CE74CE90E1189125E18873680F0C080AF

Скачать .torrent

Скачать

14 KB

Статус: проверено
Скачан: 0 раз
Размер: 2.68 GB
terms.php



Быстрый ответ

Имя:

      
Для отправки сообщений необходимо включить JavaScript
Показать сообщения:    

Текущее время: 07-Дек 23:18

Часовой пояс: UTC + 3


Вы можете начинать темы
Вы можете отвечать на сообщения
Вы не можете редактировать свои сообщения
Вы не можете удалять свои сообщения
Вы не можете голосовать в опросах
Вы не можете прикреплять файлы к сообщениям
Вы можете скачивать файлы