Телепередача "Театр + TV". Праздник актерской песни [1992 г., Концерт, DVB]


Статистика раздачи [Обновить пиров]
Размер:  1.27 GB   |    Зарегистрирован:  1 год   |    Скачан:  0 раз

Полного источника не было: Никогда

 
   
 
 
 

[Цитировать]

Телепередача "Театр + TV". Праздник актерской песни
Год выпуска: 1992
Жанр: Концерт
Продолжительность: 01:00:00
Ведущая: Екатерина Уфимцева
Песни исполняют: Николай Караченцов, Елена Камбурова, Александр Градский, Лариса Голубкина, Ярослав и другие.
Описание:
Специальный выпуск программы «Театр+ТВ».
Отрывки фестиваля актёрской песни имени Андрея Миронова.
В выпуске участвуют:
Марина Райкина (продюсер фестиваля)
Николай Караченцов
Елена Камбурова поет песню «Балаганщик»
Александр Градский поет песню «Надо самовыражаться не ожидая перемен». О телевидении, о жаргоне (фенька, жесть),
мода - вечерние платья от фирмы «Белый клоун»,
Лариса Голубкина поет романс «Отцвели уж давно хризантемы в саду»
Виктор Калиш, театральный критик, давший дорогу Людмиле Зыкиной и Алле Пугачевой о Елене Камбуровой,
Юрий Васильев в роли ростовщика из спектакля «Свадьба Кречинского» в постановке Михаила Козакова,
Театр-кабаре «Сестры колибри», пародии на зарубежную эстраду,
Поет Ирена Кокрятская «Кино»
Театр «Сфера». Александр Малов и компания,
Юлия Силаева поет авторские песни
Ярослав Здоров. Пародия на актрису Дину Дурбин («Две гитары за стеной жалобно заныли»)
Качество: DVB
Формат: MPEG
Видео кодек: MPEG2
Аудио кодек: MP2
Видео: MPEG2 Video 704x576 (4:3) 25.00fps ~2742 Kbps
Аудио: MPEG Audio, 48000Hz, 2 ch, 192 Кбит/сек

Скриншоты

MI

Общее
Полное имя : E:\MPEG\Театр+TV. Праздник актерской песни.1992.DVB.Doc66.mpg
Формат : MPEG-PS
Размер файла : 1,27 Гбайт
Продолжительность : 1 ч. 0 м.
Режим общего битрейта : Переменный
Общий поток : 2993 Кбит/сек
Видео
Идентификатор : 224 (0xE0)
Формат : MPEG Video
Версия формата : Version 2
Профиль формата : Main@Main
Параметр BVOP формата : Да
Параметр матрицы формата : Выборочная
Продолжительность : 1 ч. 0 м.
Вид битрейта : Переменный
Битрейт : 2742 Кбит/сек
Максимальный битрейт : 15,0 Мбит/сек
Ширина : 704 пикселя
Высота : 576 пикселей
Соотношение сторон : 4:3
Частота кадров : 25,000 кадров/сек
Стандарт вещания : PAL
Цветовое пространство : YUV
Субдискретизация насыщенности : 4:2:0
Битовая глубина : 8 бит
Метод сжатия : С потерями
Бит/(Пиксели*Кадры) : 0.270
Размер потока : 1,16 Гбайт (92%)
Аудио
Идентификатор : 192 (0xC0)
Формат : MPEG Audio
Версия формата : Version 1
Профиль формата : Layer 2
Продолжительность : 1 ч. 0 м.
Вид битрейта : Постоянный
Битрейт : 192 Кбит/сек
Каналы : 2 канала
Частота : 48,0 КГц
Метод сжатия : С потерями
Размер потока : 83,3 Мбайт (6%)
[teatrix.ru].t11435.torrent 
Торрент: Зарегистрирован [ 2015-12-07 17:45 ] · 9DA5C87A01142E80BC49C6BFA2509E364515B2AB

Скачать .torrent

Скачать

26 KB

Статус: проверено
Скачан: 0 раз
Размер: 1.27 GB
terms.php



Быстрый ответ

Имя:

      
Для отправки сообщений необходимо включить JavaScript
Показать сообщения:    

Текущее время: 07-Дек 21:20

Часовой пояс: UTC + 3


Вы можете начинать темы
Вы можете отвечать на сообщения
Вы не можете редактировать свои сообщения
Вы не можете удалять свои сообщения
Вы не можете голосовать в опросах
Вы не можете прикреплять файлы к сообщениям
Вы можете скачивать файлы