Театральные игры Анна Пирятинская (Роман Виктюк) [2008 г., ТВ-Шоу, TVRip]


Статистика раздачи [Обновить пиров]
Размер:  249 MB   |    Зарегистрирован:  1 год   |    Скачан:  1 раз

Полного источника не было: 22 дня

 
   
 
 
 

[Цитировать]

Театральные игры Романа Виктюка (Анна Пирятинская)
Год выпуска: 2008
Жанр: ТВ-Шоу
Продолжительность: 00:25:54
Режиссер: Роман Виктюк
В ролях: Роман Виктюк ; Анна Пирятинская
Описание: Программа посвящена актрисе Анне Пирятинской. Ученица Марии Кнебель, она стала одной из основательниц отечественного театра одного актера. Программы из произведений Достоевского, Хемингуэя, Цветаевой были в свое время очень популярны.
Сегодня Пирятинской больше ста лет. Она живет одна в московской квартире. Как и раньше, актриса работает над новыми моноспектаклями, открывая для себя заново отечественную литературу.

Доп. информация: Исходник предоставил трус
Качество: TVRip
Формат: AVI
Видео кодек: XviD
Аудио кодек: MP3
Видео: Xvid 640x480 25.00fps 1 207 Kbps Bits/(Pixel*Frame) : 0.157
Аудио: MPEG Audio Layer 3 48000Hz stereo 128Kbps

MI

General
Complete name : D:/Театральные игры Романа Виктюка (А.Пирятинская).avi
Format : AVI
Format/Info : Audio Video Interleave
File size : 249 MiB
Duration : 25mn 54s
Overall bit rate : 1 342 Kbps
Writing application : VirtualDubMod 1.5.10.2 (build 2540/release)
Writing library : VirtualDubMod build 2540/release
Video
ID : 0
Format : MPEG-4 Visual
Format profile : Advanced Simple@L5
Format settings, BVOP : Yes
Format settings, QPel : No
Format settings, GMC : No warppoints
Format settings, Matrix : Default (H.263)
Codec ID : XVID
Codec ID/Hint : XviD
Duration : 25mn 54s
Bit rate : 1 205 Kbps
Width : 640 pixels
Height : 480 pixels
Display aspect ratio : 4:3
Frame rate : 25.000 fps
Resolution : 8 bits
Colorimetry : 4:2:0
Scan type : Progressive
Bits/(Pixel*Frame) : 0.157
Stream size : 223 MiB (90%)
Writing library : XviD 1.2.1 (UTC 2008-12-04)
Audio
ID : 1
Format : MPEG Audio
Format version : Version 1
Format profile : Layer 3
Codec ID : 55
Codec ID/Hint : MP3
Duration : 25mn 54s
Bit rate mode : Constant
Bit rate : 128 Kbps
Channel(s) : 2 channels
Sampling rate : 48.0 KHz
Stream size : 23.7 MiB (10%)
Alignment : Aligned on interleaves
Interleave, duration : 40 ms (1.00 video frame)
Interleave, preload duration : 504 ms
Writing library : LAME3.98r
Encoding settings : -m s -V 4 -q 2 -lowpass 17 -b 128

Скриншоты

[teatrix.ru].t11441.torrent 
Торрент: Зарегистрирован [ 2015-12-07 17:45 ] · 1C8D878AE86D0C4ECF02E7A34BC272B25C851DA0

Скачать .torrent

Скачать

39 KB

Статус: проверено
Скачан: 1 раз
Размер: 249 MB
terms.php



Быстрый ответ

Имя:

      
Для отправки сообщений необходимо включить JavaScript
Показать сообщения:    

Текущее время: 10-Дек 06:10

Часовой пояс: UTC + 3


Вы можете начинать темы
Вы можете отвечать на сообщения
Вы не можете редактировать свои сообщения
Вы не можете удалять свои сообщения
Вы не можете голосовать в опросах
Вы не можете прикреплять файлы к сообщениям
Вы можете скачивать файлы