Приют комедиантов. Выпуск 27. Гастроли (Сергей Варновский) [2011 г., Капустник, SATRip]


Статистика раздачи [Обновить пиров]
Размер:  1.07 GB   |    Зарегистрирован:  1 год   |    Скачан:  0 раз

Полного источника не было: Никогда

 
   
 
 
 

[Цитировать]

Приют комедиантов. Выпуск 27. Гастроли
Год выпуска: 2011
Жанр: Капустник
Продолжительность: 01:29:53
Режиссер: Сергей Варновский
Участники выпуска: Лариса Удовиченко, Светлана Крючкова, Михаил Полицеймако, Елена Ксенофонтова, Юрий Васильев, Борис Грачевский, Игорь Гордин, Наталья Громушкина, Владимир Качан, Екатерина Семенова, Жанна Эппле, Александр Тютин, Юрий Лаптев.
Описание: В очередном выпуске программы "Приют комедиантов" ее ведущие Екатерина Уфимцева и Михаил Швыдкой "отправятся на гастроли" в хорошей компании.
Это летнее телепутешествие наверняка окажется веселым: недаром же у каждого из его участников припасена какая-нибудь история, связанная если не с гастролями, то с путешествиями или отдыхом.
Тема неисчерпаема, однажды в этой гостиной о своей нелегкой гастрольной жизни уже рассказывал другой состав артистов с теми же ведущими и той же Екатериной Семеновой.
Как всегда много песен, шуток и розыгрышей. Но в этот раз ведущему даже пришлось выступить со специальным заявлением о том, что на самом деле в жизни эти артисты - высокие профессионалы и трезвые люди со строгой моралью.
Телеэфир 16 июля 2011 г.
Качество: SATRip
Формат: AVI
Видео кодек: DivX
Аудио кодек: MP3
Видео: 704x528 (1.33:1), 25 fps, DivX Codec 6.6.1 ~1499 kbps avg, 0.16 bit/pixel
Аудио: 48 kHz, MPEG Layer 3, 2 ch, ~192.00 kbps avg

Скриншоты

Отчет MediaInfo

GeneralComplete name : F:\Торрент\27.Prijut.komediantov.Gastroli.Satrip.by.igor0mr.aviFormat : DivXFormat/Info : Hack of AVIFile size : 1.07 GiBDuration : 1h 29mnOverall bit rate : 1 701 Kbps
VideoID : 0Format : MPEG-4 VisualFormat settings, BVOP : NoFormat settings, QPel : NoFormat settings, GMC : No warppointsFormat settings, Matrix : Default (H.263)Codec ID : DX50Codec ID/Hint : DivX 5Duration : 1h 29mnBit rate : 1 499 KbpsWidth : 704 pixelsHeight : 528 pixelsDisplay aspect ratio : 4:3Frame rate : 25.000 fpsColor space : YUVChroma subsampling : 4:2:0Bit depth : 8 bitsScan type : ProgressiveCompression mode : LossyBits/(Pixel*Frame) : 0.161Stream size : 964 MiB (88%)Title : VideoWriting library : DivX 6.6.1.4
AudioID : 1Format : MPEG AudioFormat version : Version 1Format profile : Layer 3Mode : Joint stereoMode extension : MS StereoCodec ID : 55Codec ID/Hint : MP3Duration : 1h 29mnBit rate mode : ConstantBit rate : 192 KbpsChannel(s) : 2 channelsSampling rate : 48.0 KHzCompression mode : LossyStream size : 123 MiB (11%)Alignment : Split accross interleavesInterleave, duration : 40 ms (1.00 video frame)Interleave, preload duration : 500 msTitle : AudioWriting library : LAME3.96
[teatrix.ru].t11449.torrent 
Торрент: Зарегистрирован [ 2015-12-07 17:45 ] · 717BFF6FC147644760697DB8D16A81F780B48C60

Скачать .torrent

Скачать

11 KB

Статус: проверено
Скачан: 0 раз
Размер: 1.07 GB
terms.php



Быстрый ответ

Имя:

      
Для отправки сообщений необходимо включить JavaScript
Показать сообщения:    

Текущее время: 09-Дек 01:04

Часовой пояс: UTC + 3


Вы можете начинать темы
Вы можете отвечать на сообщения
Вы не можете редактировать свои сообщения
Вы не можете удалять свои сообщения
Вы не можете голосовать в опросах
Вы не можете прикреплять файлы к сообщениям
Вы можете скачивать файлы