Приют комедиантов. Выпуск 26. Звездные дети (Сергей Варновский) [2011 г., Капустник, SATRip]


Статистика раздачи [Обновить пиров]
Размер:  1.07 GB   |    Зарегистрирован:  1 год   |    Скачан:  0 раз

Полного источника не было: Никогда

 
   
 
 
 

[Цитировать]

Приют комедиантов. Выпуск 26. Звездные дети
Год выпуска: 2011
Жанр: Капустник
Продолжительность: 01:30:03
Режиссер: Сергей Варновский
Ведущие: Екатерина Уфимцева, Михаил Швыдкой
Участники выпуска: Федор Бондарчук, Максим Никулин, Александра Захарова, Максим Дунаевский, Никита Высоцкий, Анна Терехова, Алиса Гребенщикова, Михаил Ефремов, Дмитрий Маликов, Алика Смехова, Ирина Лачина, Егор Кончаловский, Мария Максакова и другие.
Описание: Очередной выпуск передачи "Приют комедиантов" посвящен детям знаменитостей.
В тот вечер, когда записывали эту программу, "звездные дети", собравшиеся в студии Центрального дома литераторов за столиками, разъехались по домам глубокой ночью, хотя поначалу предложенная для обсуждения тема многим из них казалась банальной. Егор Кончаловский, который был слегка рассержен (ему не напомнили о съемках заранее!), хотел из-за оставленной дома дочки уйти уже через полчаса, но так увлекся, рассказывая, в частности, о своем знаменитом дедушке, что отбыл вместе со всеми. Почему дети актеров становятся актерами, режиссеров – режиссерами, а композиторов – композиторами? Что же тут помогает гены и талант или же блат? На этот вопрос "звездные дети" отвечали по-разному… Но вряд ли даже очень мощная "волосатая лапа" дала бы им всем возможность создать в "Приюте комедиантов" эту неповторимую атмосферу актерских посиделок! Богом данный рассказчик Максим Никулин (к тому же, ему досталось отцовское чувство юмора!) поведал о том, по какой причине он вернулся домой глубокой ночью, когда его однажды послали на минутку к Пляттам за папой, Ирина Лачина исполнила цыганские песни своей мамы - Светланы Тома - из фильма "Табор уходит в небо", Максим Дунаевский – и свою, и отцовскую музыку, а Никита Высоцкий, открывшийся с совершенно неожиданной стороны, и вовсе мгновенно завладел всеобщим вниманием. Все члены этой роскошной компании, перекидываясь остроумными репликами, как шариками в пинг-понге, заставляли друг друга (хочется надеяться, заставят и зрителей) то плакать, то смеяться.
Впрочем, речь шла и о серьезном. Как родители относятся к желанию своих отпрысков пойти по их стопам, и трудно ли быть ребенком звезды? Почему вот, например, Алиса Гребенщикова не хочет подписываться папиной фамилией? А еще этот вечер, быть может, так удался и потому, что соведущая Михаила Швыдкого Екатерина Уфимцева сама - "звездный ребенок". Девочка училась в младших классах, когда ее отец актер и режиссер Иван Уфимцев придумал Слоненка, Попугая, Удава и Мартышку для своего культового мультфильма "38 попугаев". И обезьянка была, безусловно, списана с любимой дочки.
Доп. информация: Релиз
Телеэфир 4 июня 2011 г.
Качество: SATRip
Формат: AVI
Видео кодек: XviD
Аудио кодек: MP3
Видео: 704x528 (1.33:1), 25 fps, XviD build 50 ~1498 kbps avg, 0.16 bit/pixel
Аудио: 48 kHz, Microsoft MPEG, 2 ch, ~192.00 kbps avg

Отчёт MediaInfo

GeneralComplete name : D:\26.Prijut.komediantov.Zvezdnye.deti.Satrip.by.igor0mr.aviFormat : AVIFormat/Info : Audio Video InterleaveFile size : 1.07 GiBDuration : 1h 30mnOverall bit rate : 1 700 KbpsWriting application : VirtualDubMod 1.5.10.2 (build 2540/release)Writing library : VirtualDubMod build 2540/release
VideoID : 0Format : MPEG-4 VisualFormat profile : Advanced Simple@L5Format settings, BVOP : 2Format settings, QPel : YesFormat settings, GMC : 3 warppointsFormat settings, Matrix : Default (H.263)Codec ID : XVIDCodec ID/Hint : XviDDuration : 1h 30mnBit rate : 1 499 KbpsWidth : 704 pixelsHeight : 528 pixelsDisplay aspect ratio : 4:3Frame rate : 25.000 fpsColor space : YUVChroma subsampling : 4:2:0Bit depth : 8 bitsScan type : ProgressiveCompression mode : LossyBits/(Pixel*Frame) : 0.161Stream size : 965 MiB (88%)Writing library : XviD 1.2.1 (UTC 2008-12-04)
AudioID : 1Format : MPEG AudioFormat version : Version 1Format profile : Layer 2Codec ID : 50Duration : 1h 30mnBit rate mode : ConstantBit rate : 192 KbpsChannel(s) : 2 channelsSampling rate : 48.0 KHzCompression mode : LossyStream size : 124 MiB (11%)Alignment : Aligned on interleavesInterleave, duration : 40 ms (1.00 video frame)Interleave, preload duration : 504 ms

Скриншоты

[teatrix.ru].t11458.torrent 
Торрент: Зарегистрирован [ 2015-12-07 17:45 ] · B05E3382EE0C9DA189D810D5A371FE6DEAC77546

Скачать .torrent

Скачать

11 KB

Статус: проверено
Скачан: 0 раз
Размер: 1.07 GB
terms.php



Быстрый ответ

Имя:

      
Для отправки сообщений необходимо включить JavaScript
Показать сообщения:    

Текущее время: 11-Дек 11:07

Часовой пояс: UTC + 3


Вы можете начинать темы
Вы можете отвечать на сообщения
Вы не можете редактировать свои сообщения
Вы не можете удалять свои сообщения
Вы не можете голосовать в опросах
Вы не можете прикреплять файлы к сообщениям
Вы можете скачивать файлы