Агнета: АББА и далее... / Agnetha: ABBA & After... (Samantha Peters / Саманта Питерс) [2013, Документальный, биография, HDTVRip] MVO (1канал) + Eng


Статистика раздачи [Обновить пиров]
Размер:  1.09 GB   |    Зарегистрирован:  1 год   |    Скачан:  0 раз

Полного источника не было: Никогда

Личеров:  3  [  0 KB/s  ]   Подробная статистика пиров
 
   
 
 
 

[Цитировать]

Агнета: АББА и далее... / Agnetha: ABBA & After... -Дата/Год выпуска: 2013
Страна: Великобритания
Жанр: Документальный, биография
Продолжительность: 00:59:26
Перевод: Профессиональный (многоголосый закадровый)
Доп. инфо о переводе: 1 канал
Русские субтитры: нет
Оригинальная аудиодорожка: английский
Режиссер: Samantha Peters / Саманта Питерс
Телеканал: 1 канал
Описание: Агнета Фельтског - одна из наиболее ярких и загадочных звезд мировой поп-культуры. Начав сольную карьеру в пятнадцатилетнем возрасте, она приобрела всемирную известность в составе группы ABBA вместе со своим мужем Бьорном Ульвеусом, а также Бенни Андерссоном и Анни-Фрид Лингстад. В 2013 году после многолетнего добровольного изгнания Агнета вернулась в музыкальную индустрию с новым альбомом "А", который занял высочайшие позиции в чартах по всему миру. В документальном фильме BBC и Universal Music Агнета приоткрывает дверь в свой внутренний мир, рассказывая о том, как изменила сельскую девушку из Швеции внезапно обрушившаяся на нее невероятная популярность, как она приходила в себя после громкого развода и как нашла в себе силы начать жить заново?
Доп. информация: Расширенная версия (~ 4минуты).Есть места без перевода.
Сэмпл: http://sendfile.su/1031315
качество: HDTVRip
формат: AVI
Видео: MPEG4, XviD, 720x400 (16/9), 25.000 fps, 2 230 Kbps (0.310 bit/pixel)
Аудио 1: AC-3, 48.0 KHz, 2 ch, 192 Kbps, CBR - русский
Аудио 2: AC-3, 48.0 KHz, 2 ch, 192 Kbps, CBR - английский

MediaInfo

ОбщееПолное имя : K:\Агнета. АББА и далее....aviФормат : AVIФормат/Информация : Audio Video InterleaveРазмер файла : 1,09 ГбайтПродолжительность : 59 м.Общий поток : 2628 Кбит/секНазвание фильма : Агнета: АББА и далее... / Agnetha: ABBA & After... / Agnetha: ABBA and After... (2013)Программа кодирования : VirtualDubMod 1.5.10.2 (build 2540/release)Библиотека кодирования : VirtualDubMod build 2540/releaseПравообладатель : miha2154
ВидеоИдентификатор : 0Формат : MPEG-4 VisualПрофиль формата : Advanced Simple@L5Параметр BVOP формата : 1Параметр QPel формата : НетПараметр GMC формата : Без точки переходаПараметр матрицы формата : ВыборочнаяИдентификатор кодека : XVIDИдентификатор кодека/Подсказка : XviDПродолжительность : 59 м.Битрейт : 2230 Кбит/секШирина : 720 пикселейВысота : 400 пикселейСоотношение сторон : 16:9Частота кадров : 25,000 кадров/секЦветовое пространство : YUVСубдискретизация насыщенности : 4:2:0Битовая глубина : 8 битТип развёртки : ПрогрессивнаяМетод сжатия : С потерямиБит/(Пиксели*Кадры) : 0.310Размер потока : 948 Мбайт (85%)Библиотека кодирования : XviD 65
Аудио #1Идентификатор : 1Формат : AC-3Формат/Информация : Audio Coding 3Расширение режима : CM (complete main)Параметр Endianness формата : BigИдентификатор кодека : 2000Продолжительность : 59 м.Вид битрейта : ПостоянныйБитрейт : 192 Кбит/секКаналы : 2 каналаРасположение каналов : Front: L RЧастота : 48,0 КГцБитовая глубина : 16 битМетод сжатия : С потерямиРазмер потока : 81,6 Мбайт (7%)Выравнивание : Разделение по промежуткамПродолжительность промежутка : 40 мс. (1,00 видеокадр)Время предзагрузки промежутка : 500 мс.Заголовок : Профессиональный (многоголосый закадровый) 1 канал
Аудио #2Идентификатор : 2Формат : AC-3Формат/Информация : Audio Coding 3Расширение режима : CM (complete main)Параметр Endianness формата : BigИдентификатор кодека : 2000Продолжительность : 59 м.Вид битрейта : ПостоянныйБитрейт : 192 Кбит/секКаналы : 2 каналаРасположение каналов : Front: L RЧастота : 48,0 КГцБитовая глубина : 16 битМетод сжатия : С потерямиРазмер потока : 81,6 Мбайт (7%)Выравнивание : Разделение по промежуткамПродолжительность промежутка : 40 мс. (1,00 видеокадр)Время предзагрузки промежутка : 500 мс.Заголовок : Английский

Скриншоты

[teatrix.ru].t11505.torrent 
Торрент: Зарегистрирован [ 2015-12-07 17:45 ] · D5447748EC4308DD523F97F688E5DFAB81443400

Скачать .torrent

Скачать

11 KB

Статус: проверено
Скачан: 0 раз
Размер: 1.09 GB
terms.php



Быстрый ответ

Имя:

      
Для отправки сообщений необходимо включить JavaScript
Показать сообщения:    

Текущее время: 11-Дек 09:10

Часовой пояс: UTC + 3


Вы можете начинать темы
Вы можете отвечать на сообщения
Вы не можете редактировать свои сообщения
Вы не можете удалять свои сообщения
Вы не можете голосовать в опросах
Вы не можете прикреплять файлы к сообщениям
Вы можете скачивать файлы