Агнета: АББА и далее... / Agnetha: ABBA & After... (Samantha Peters / Саманта Питерс) [2013, Документальный, биография, DVB-T2]


Статистика раздачи [Обновить пиров]
Размер:  1.17 GB   |    Зарегистрирован:  11 месяцев 26 дней   |    Скачан:  0 раз

Полного источника не было: Никогда

Личеров:  2  [  0 KB/s  ]   Подробная статистика пиров
 
   
 
 
 

[Цитировать]

Агнета: АББА и далее... / Agnetha: ABBA & After...
Дата/Год выпуска: 2013
Страна: Великобритания
Жанр: Документальный, биография
Продолжительность: 00:55:01
Перевод: Профессиональный (многоголосый закадровый)
Режиссер: Samantha Peters / Саманта Питерс
Телеканал: Первый (Россия)
Описание: Агнета Фельтског - одна из наиболее ярких и загадочных звезд мировой поп-культуры. Начав сольную карьеру в пятнадцатилетнем возрасте, она приобрела всемирную известность в составе группы ABBA вместе со своим мужем Бьорном Ульвеусом, а также Бенни Андерссоном и Анни-Фрид Лингстад. В 2013 году после многолетнего добровольного изгнания Агнета вернулась в музыкальную индустрию с новым альбомом "А", который занял высочайшие позиции в чартах по всему миру. В документальном фильме BBC и Universal Music Агнета приоткрывает дверь в свой внутренний мир, рассказывая о том, как изменила сельскую девушку из Швеции внезапно обрушившаяся на нее невероятная популярность, как она приходила в себя после громкого развода и как нашла в себе силы начать жить заново?
Раздача группы:
Сэмпл
качество: DVB-T2
формат: TS
Видео: AVC, 720х576@1024х576 (16:9), 2706 Kbps, 25 fps, Bits/(Pixel*Frame) : 0.261
Аудио: MP2, 192 Kbps, 48.0 KHz, 2 ch

MediaInfo

D:\видео\Агнета АББА и далее....ts General #1 ID : 1 (0x1) Complete name : D:\видео\Агнета АББА и далее....ts Format : MPEG-TS File size : 1.17 GiB Duration : 55mn 1s Overall bit rate : 3 051 Kbps Video #1011 ID : 1011 (0x3F3) Menu ID : 1 (0x1) Format : AVC Format/Info : Advanced Video Codec Format profile : Main@L3.0 Format settings, CABAC : Yes Format settings, ReFrames : 3 frames Format settings, GOP : M=4, N=28 Codec ID : 27 Duration : 55mn 1s Bit rate : 2 706 Kbps Width : 720 pixels Height : 576 pixels Display aspect ratio : 16:9 Frame rate : 25.000 fps Standard : Component Color space : YUV Chroma subsampling : 4:2:0 Bit depth : 8 bits Scan type : Interlaced Scan order : Top Field First Bits/(Pixel*Frame) : 0.261 Stream size : 1.04 GiB (89%) Color primaries : BT.470-6 System B, BT.470-6 System G, BT.601-6 625, BT.1358 625, BT.1700 625 PAL, BT.1700 625 SECAM Transfer characteristics : BT.470-6 System B, BT.470-6 System G Matrix coefficients : BT.470-6 System B, BT.470-6 System G, BT.601-6 625, BT.1358 625, BT.1700 625 PAL, BT.1700 625 SECAM, IEC 61966-2-4 601 Audio #1012 ID : 1012 (0x3F4) Menu ID : 1 (0x1) Format : MPEG Audio Format version : Version 1 Format profile : Layer 2 Codec ID : 3 Duration : 55mn 1s Bit rate mode : Constant Bit rate : 192 Kbps Channel(s) : 2 channels Sampling rate : 48.0 KHz Compression mode : Lossy Stream size : 75.6 MiB (6%) Language : English Text #1014-100 ID : 1014 (0x3F6)-100 Menu ID : 1 (0x1) Format : Teletext Language : Russian

Скриншоты

[teatrix.ru].t11506.torrent 
Торрент: Зарегистрирован [ 2015-12-07 17:45 ] · 26CAE2626D138B1E9DDF844A7F0F9146CEAB29B0

Скачать .torrent

Скачать

12 KB

Статус: проверено
Скачан: 0 раз
Размер: 1.17 GB
terms.php



Быстрый ответ

Имя:

      
Для отправки сообщений необходимо включить JavaScript
Показать сообщения:    

Текущее время: 03-Дек 01:20

Часовой пояс: UTC + 3


Вы можете начинать темы
Вы можете отвечать на сообщения
Вы не можете редактировать свои сообщения
Вы не можете удалять свои сообщения
Вы не можете голосовать в опросах
Вы не можете прикреплять файлы к сообщениям
Вы можете скачивать файлы