Каддафи: Взять живым или мертвым / Kadhafi: mort ou vif (Антуан Виткин / Antoine Vitkine) [2012, документальный, DVB] Original (Fre) + Sub (rus)


Статистика раздачи [Обновить пиров]
Размер:  2.68 GB   |    Зарегистрирован:  1 год   |    Скачан:  0 раз

Полного источника не было: Никогда

Личеров:  2  [  0 KB/s  ]   Подробная статистика пиров
 
   
 
 
 

[Цитировать]

Каддафи: Взять живым или мертвым
Kadhafi: mort ou vif- Дата/Год выпуска: 2012
Страна: Франция
Жанр: документальный
Продолжительность: 01:32:02
Перевод: Субтитры
Русские субтитры: есть
Формат субтитров: hardsub (неотключаемые)
Доп. информация о субтитрах: перевод А.Вижье, Éclair Group
Оригинальная аудиодорожка: французский
Режиссер: Антуан Виткин / Antoine Vitkine
Телеканал: TV5MONDEОписание: Муаммар Каддафи — последний представитель поколения арабских националистов-революционеров, пришедших к власти в результате военных переворотов 1950—1960-х годов.
Утром 20 октября 2011 года отряды Национального переходного совета предприняли очередной штурм Сирта, в результате которого им удалось взять город. При попытке вырваться из осаждённого города, Муаммар Каддафи был взят повстанцами в плен.
Фильм рассказывает о последнем противостоянии между Каддафи и Западом.
Доп. информация: DVB-S. Во время нефранцузской речи на экране дополнительно вшитые французские субтитры.

качество: DVB
формат: MKV
Видео: MPEG Video 2, 704x576@1024x576 (16:9), 25 fps, ~3888 kbps avg, 0.384 bit/pixel
Аудио: Французский (MPEG Audio 2, 2 ch, 48 kHz, ~192.00 kbps avg)

MediaInfo

ОбщееУникальный идентификатор : 223431175454918672857531011649875985995 (0xA81747752EF2A132B7B70F268237C64B)Полное имя : E:\My Torrents 2\[apreder]Kadhafi_mort_ou_vif(2012)DVB.mkvФормат : MatroskaВерсия формата : Version 2Размер файла : 2,68 ГбайтПродолжительность : 1 ч. 32 м.Режим общего битрейта : ПеременныйОбщий поток : 4163 Кбит/секДата кодирования : UTC 2014-10-04 10:02:07Программа кодирования : mkvmerge v7.2.0 ('On Every Street') 64bit built on Sep 13 2014 15:52:10Библиотека кодирования : libebml v1.3.0 + libmatroska v1.4.1
ВидеоИдентификатор : 1Формат : MPEG VideoВерсия формата : Version 2Профиль формата : Main@MainПараметр BVOP формата : НетПараметр матрицы формата : ВыборочнаяИдентификатор кодека : V_MPEG2Идентификатор кодека/Информация : MPEG 1 or 2 VideoПродолжительность : 1 ч. 32 м.Вид битрейта : ПеременныйБитрейт : 3888 Кбит/секМаксимальный битрейт : 7870 Кбит/секШирина : 704 пикселяВысота : 576 пикселейСоотношение сторон : 16:9Режим частоты кадров : ПостоянныйЧастота кадров : 25,000 кадров/секСтандарт вещания : PALЦветовое пространство : YUVСубдискретизация насыщенности : 4:2:0Битовая глубина : 8 битТип развёртки : ЧересстрочнаяПорядок развёртки : Верхнее поле первоеМетод сжатия : С потерямиБит/(Пиксели*Кадры) : 0.384Временной код первого кадра : 00:00:00:00Оригинал временного кода : Group of pictures headerРазмер потока : 2,50 Гбайт (93%)Default : ДаForced : Нет
АудиоИдентификатор : 2Формат : MPEG AudioВерсия формата : Version 1Профиль формата : Layer 2Идентификатор кодека : A_MPEG/L2Идентификатор кодека/Подсказка : MP2Продолжительность : 1 ч. 32 м.Вид битрейта : ПостоянныйБитрейт : 192 Кбит/секКаналы : 2 каналаЧастота : 48,0 КГцМетод сжатия : С потерямиРазмер потока : 126 Мбайт (5%)Язык : FrenchDefault : ДаForced : Нет

Скриншоты

Резервные скриншоты

-[1'775]
[teatrix.ru].t11507.torrent 
Торрент: Зарегистрирован [ 2015-12-07 17:45 ] · 8A5302287EC70985C7B72615E651C90ACD1ECF17

Скачать .torrent

Скачать

14 KB

Статус: проверено
Скачан: 0 раз
Размер: 2.68 GB
terms.php



Быстрый ответ

Имя:

      
Для отправки сообщений необходимо включить JavaScript
Показать сообщения:    

Текущее время: 08-Дек 09:07

Часовой пояс: UTC + 3


Вы можете начинать темы
Вы можете отвечать на сообщения
Вы не можете редактировать свои сообщения
Вы не можете удалять свои сообщения
Вы не можете голосовать в опросах
Вы не можете прикреплять файлы к сообщениям
Вы можете скачивать файлы