Игорь Тальков Строгий портрет (Татьяна Пименова) [1993 г., документальный, VHSRip]


Статистика раздачи [Обновить пиров]
Размер:  1.39 GB   |    Зарегистрирован:  11 месяцев   |    Скачан:  0 раз
Сидов:  1  [  0 KB/s  ]   Личеров:  3  [  0 KB/s  ]   Подробная статистика пиров
 
   
 
 
 

[Цитировать]

Игорь Тальков Строгий портрет
Дата/Год выпуска: 1993 г.
Страна: Россия
Жанр: документальный
Продолжительность: 00:51:47
Перевод: Не требуется
Русские субтитры: нет
Режиссер: Татьяна Пименова
Описание: Этот фильм, с одной стороны биографический, с другой - остро публицистический, концептуальный, в котором песни Игоря Талькова звучат на фоне социально исторических событий с 1917 по октябрь 1993г. И условно говоря, развивая тему "сумасшествия Родины", призывает к прозрению и покаянию. Очень актуален особенно в сегодняшнее время.
Произведено - кинообъединение "Отечество" при киностудии им. М.Горького.
Спонсор АО "СКИТ".
Сэмпл: http://s2.sendfile.su/download/1030199/HM4RmKhgBH4i...XsW5LdAIsGaXUApR
качество: VHSRip
формат: MPEG Video
Видео: MPEG2 Video 768 x 576 (4:3) 25.00fps 3537 Кбит/сек
Аудио: MPEG Audio 48000Hz stereo 224kbps

MediaInfo

Полное имя : C:Игорь Тальков Строгий портрет.mpgФормат : MPEG-PSРазмер файла : 1,39 ГбайтПродолжительность : 51 м.Режим общего битрейта : ПеременныйОбщий поток : 3838 Кбит/сек
ВидеоИдентификатор : 224 (0xE0)Формат : MPEG VideoВерсия формата : Version 2Профиль формата : Main@MainПараметр BVOP формата : ДаПараметр матрицы формата : По умолчаниюПараметр GOP формата : VariableПродолжительность : 51 м.Вид битрейта : ПеременныйБитрейт : 3537 Кбит/секМаксимальный битрейт : 9610 Кбит/секШирина : 720 пикселейВысота : 576 пикселейСоотношение сторон : 4:3Частота кадров : 25,000 кадров/секСтандарт вещания : PALЦветовое пространство : YUVСубдискретизация насыщенности : 4:2:0Битовая глубина : 8 битТип развёртки : ПрогрессивнаяПорядок развёртки : Нижнее поле первоеМетод сжатия : С потерямиБит/(Пиксели*Кадры) : 0.341Временной код первого кадра : 00:00:00:00Оригинал временного кода : Group of pictures headerРазмер потока : 1,28 Гбайт (92%)Основные цвета : BT.601 PALХарактеристики трансфера : BT.470 System B, BT.470 System GКоэффициенты матрицы : BT.601
АудиоИдентификатор : 192 (0xC0)Формат : MPEG AudioВерсия формата : Version 1Профиль формата : Layer 2Продолжительность : 51 м.Вид битрейта : ПостоянныйБитрейт : 224 Кбит/секКаналы : 2 каналаЧастота : 48,0 КГцМетод сжатия : С потерямиЗадержка видео : -40 мс.Размер потока : 83,0 Мбайт (6%)

Скриншоты

[teatrix.ru].t11508.torrent 
Торрент: Зарегистрирован [ 2015-12-07 17:45 ] · 8F4DDD1C29CA17B205D8234C9CBE80C64179D3BE

Скачать .torrent

Скачать

14 KB

Статус: проверено
Скачан: 0 раз
Размер: 1.39 GB
terms.php



Быстрый ответ

Имя:

      
Для отправки сообщений необходимо включить JavaScript
Показать сообщения:    

Текущее время: 07-Дек 00:53

Часовой пояс: UTC + 3


Вы можете начинать темы
Вы можете отвечать на сообщения
Вы не можете редактировать свои сообщения
Вы не можете удалять свои сообщения
Вы не можете голосовать в опросах
Вы не можете прикреплять файлы к сообщениям
Вы можете скачивать файлы