Чужая на родине - Судьба дочери Сталина (Александр Колесник) [02/10/2014, Документальный, SATRip]


Статистика раздачи [Обновить пиров]
Размер:  646 MB   |    Зарегистрирован:  11 месяцев   |    Скачан:  0 раз

Полного источника не было: Никогда

 
   
 
 
 

[Цитировать]

Чужая на родине - Судьба дочери Сталина
Дата/Год выпуска: 02/10/2014
Страна: Россия
Жанр: Документальный
Продолжительность: 00:38:57
Перевод: Не требуется
Режиссёр: Александр Колесник
Телеканал: ВГТРК
Описание: В 1954 году Светлане Сталиной, выпускнице аспирантуры Академии Общественных наук при ЦК КПСС и преподавательнице спецкурса для работников КГБ при Совете Министров СССР, решением Президиума ЦК КПСС было поручено подготовить воспоминания о своём отце, что она и сделала как раз к ХХ съезду КПСС. Это была книга дочери о любимом отце, которая в то время так и не увидела свет. Тогда КГБ было дано указание провести необходимую работу и переделать воспоминания на антисталинские. Светлана не раз работу переписывала, но советское руководство переделки не устраивали, хотя для этого с дочерью Сталина работала агентура из литературной среды. В конечном итоге Браджеш Сингх, брат министра иностранных дел Индии, вывез их из СССР и передал американскому советологу Д. Кеннану, который предложил вывезти дочь Сталина из СССР, и самим доработать и издать её книгу, что и было сделано.
Так в книгах "Двадцать писем другу" и "Только один год" появились моменты, к которым Светлана Аллилуева отношения не имела. В подтверждение этого авторы фильма предоставляют её собственноручные показания. Будут также раскрыты причины её возвращения в СССР в 1984 году, перлюстрация её багажа в аэропорту "Шереметьево", изъятие вопросника для книги о необходимости развала Советского Союза, и, как следствие, её ссылка в Тбилиси, где через год будет предпринята попытка изнасилования её дочери... И очередное бегство из СССР, лишение пенсии в США и восьмилетняя жизнь в богадельне для бездомных в Англии...
В фильме также - неизвестные ранее факты из жизни: о мести первой любви А. Каплеру, докладах в КГБ, о работе и настроениях её возлюбленного А. Синявского, о финансовой сделке в Америке с Райтом в обмен на отказ от дочери и многое другое.
качество: SATRip
формат: AVI
Видео: XviD, 720x528 25.00fps 1800kbps
Аудио: AC3, 48000Hz stereo 192kbps

MediaInfo

ВидеоИдентификатор : 0Формат : MPEG-4 VisualПрофиль формата : Advanced Simple@L5Параметр BVOP формата : 2Параметр QPel формата : НетПараметр GMC формата : Без точки переходаПараметр матрицы формата : Default (H.263)Идентификатор кодека : XVIDИдентификатор кодека/Подсказка : XviDПродолжительность : 45 м.Битрейт : 1800 Кбит/секШирина : 720 пикселейВысота : 528 пикселейСоотношение сторон : 4:3Частота кадров : 25,000 кадров/секЦветовое пространство : YUVСубдискретизация насыщенности : 4:2:0Битовая глубина : 8 битТип развёртки : ПрогрессивнаяМетод сжатия : С потерямиБит/(Пиксели*Кадры) : 0.189Размер потока : 580 Мбайт (90%)Библиотека кодирования : XviD 1.2.1 (UTC 2008-12-04)
АудиоИдентификатор : 1Формат : AC-3Формат/Информация : Audio Coding 3Расширение режима : CM (complete main)Параметр Endianness формата : BigИдентификатор кодека : 2000Продолжительность : 45 м.Вид битрейта : ПостоянныйБитрейт : 192 Кбит/секКаналы : 2 каналаРасположение каналов : Front: L RЧастота : 48,0 КГцБитовая глубина : 16 битМетод сжатия : С потерямиРазмер потока : 61,9 Мбайт (10%)Выравнивание : Разделение по промежуткамПродолжительность промежутка : 40 мс. (1,00 видеокадр)Время предзагрузки промежутка : 500 мс.

Скриншоты

[teatrix.ru].t11510.torrent 
Торрент: Зарегистрирован [ 2015-12-07 17:45 ] · D529B6E1FC2ED745AF45D6D82DFB9DE29CD25E

Скачать .torrent

Скачать

13 KB

Статус: проверено
Скачан: 0 раз
Размер: 646 MB
terms.php



Быстрый ответ

Имя:

      
Для отправки сообщений необходимо включить JavaScript
Показать сообщения:    

Текущее время: 04-Дек 21:20

Часовой пояс: UTC + 3


Вы можете начинать темы
Вы можете отвечать на сообщения
Вы не можете редактировать свои сообщения
Вы не можете удалять свои сообщения
Вы не можете голосовать в опросах
Вы не можете прикреплять файлы к сообщениям
Вы можете скачивать файлы