Николай Рыжков. Последний Премьер Империи (Алексей Грицаенко)[2014, Документальный, SATRip]


Статистика раздачи [Обновить пиров]
Размер:  752 MB   |    Зарегистрирован:  11 месяцев   |    Скачан:  0 раз

Полного источника не было: Никогда

Личеров:  2  [  0 KB/s  ]   Подробная статистика пиров
 
   
 
 
 

[Цитировать]

Николай Рыжков. Последний Премьер Империи
Дата/Год выпуска: 2014
Страна: Россия
Жанр: Документальный
Продолжительность: 00:52:32
Перевод: Не требуется
Режиссёр: Алексей Грицаенко
Телеканал: Россия 1
Описание: Фильм посвящен Николаю Ивановичу Рыжкову, возглавлявшему в 1985-1990 годах советское правительство. Именно эти годы, названные впоследствии эпохой перемен, стали последними в истории СССР.
качество: SATRip
формат: AVI
Видео: XviD, 720x400 25.00fps 1800kbps
Аудио: AC3, 48000Hz stereo 192kbps

MediaInfo

Библиотека кодирования : VirtualDubMod build 2550/release
ВидеоИдентификатор : 0Формат : MPEG-4 VisualПрофиль формата : Advanced Simple@L5Параметр BVOP формата : 2Параметр QPel формата : НетПараметр GMC формата : Без точки переходаПараметр матрицы формата : Default (H.263)Идентификатор кодека : XVIDИдентификатор кодека/Подсказка : XviDПродолжительность : 52 м.Битрейт : 1800 Кбит/секШирина : 720 пикселейВысота : 400 пикселейСоотношение сторон : 16:9Частота кадров : 25,000 кадров/секЦветовое пространство : YUVСубдискретизация насыщенности : 4:2:0Битовая глубина : 8 битТип развёртки : ПрогрессивнаяМетод сжатия : С потерямиБит/(Пиксели*Кадры) : 0.250Размер потока : 676 Мбайт (90%)Библиотека кодирования : XviD 1.2.1 (UTC 2008-12-04)
АудиоИдентификатор : 1Формат : AC-3Формат/Информация : Audio Coding 3Расширение режима : CM (complete main)Параметр Endianness формата : BigИдентификатор кодека : 2000Продолжительность : 52 м.Вид битрейта : ПостоянныйБитрейт : 192 Кбит/секКаналы : 2 каналаРасположение каналов : Front: L RЧастота : 48,0 КГцБитовая глубина : 16 битМетод сжатия : С потерямиРазмер потока : 72,2 Мбайт (10%)Выравнивание : Разделение по промежуткамПродолжительность промежутка : 40 мс. (1,00 видеокадр)Время предзагрузки промежутка : 500 мс.

Скриншоты

[teatrix.ru].t11511.torrent 
Торрент: Зарегистрирован [ 2015-12-07 17:45 ] · 2E385516BDB84AFB1296E50827C8AE2E3C3E7736

Скачать .torrent

Скачать

15 KB

Статус: проверено
Скачан: 0 раз
Размер: 752 MB
terms.php



Быстрый ответ

Имя:

      
Для отправки сообщений необходимо включить JavaScript
Показать сообщения:    

Текущее время: 05-Дек 03:30

Часовой пояс: UTC + 3


Вы можете начинать темы
Вы можете отвечать на сообщения
Вы не можете редактировать свои сообщения
Вы не можете удалять свои сообщения
Вы не можете голосовать в опросах
Вы не можете прикреплять файлы к сообщениям
Вы можете скачивать файлы