Удар властью. Виктор Черномырдин [2014, биография, SATRip]


Статистика раздачи [Обновить пиров]
Размер:  538 MB   |    Зарегистрирован:  11 месяцев   |    Скачан:  0 раз
Сидов:  1  [  0 KB/s  ]   Личеров:  4  [  0 KB/s  ]   Подробная статистика пиров
 
   
 
 
 

[Цитировать]

Удар властью. Виктор Черномырдин
Дата/Год выпуска: 2014
Страна: Россия
Жанр: биография
Продолжительность: 00:38:57
Перевод: Не требуется
Телеканал: ТВЦ
Описание: Премьер-министром Виктор Черномырдин стал в декабре 1992 года, в эпоху хаоса и анархии, бедности граждан и яростных политических интриг. Политический тяжеловес, создатель Газпрома, его сравнивают с Витте и Столыпиным. Как мальчишка-троечник из оренбургского села сумел достигнуть таких вершин? Почему пошёл на поводу у террориста Басаева? И как рождались его знаменитые афоризмы?
качество: SATRip
формат: AVI
Видео: XviD, 688x512 (1.34:1), 25 fps, XviD build 50 ~1794 kbps avg, 0.20 bit/pixel
Аудио: MP3, 48 kHz, MPEG Layer 3, 2 ch, ~128.00 kbps avg

MediaInfo

ОбщееПолное имя : I:\Удар властью. Виктор Черномырдин\Удар властью.Виктор Черномырдин.2014.SATRip.aviФормат : AVIФормат/Информация : Audio Video InterleaveРазмер файла : 538 МбайтПродолжительность : 38 м.Общий поток : 1932 Кбит/секПрограмма кодирования : VirtualDubMod 1.5.10.3 | www.virtualdub-fr.org || (build 2550/release)Библиотека кодирования : VirtualDubMod build 2550/release
ВидеоИдентификатор : 0Формат : MPEG-4 VisualПрофиль формата : Advanced Simple@L5Параметр BVOP формата : 2Параметр QPel формата : НетПараметр GMC формата : Без точки переходаПараметр матрицы формата : Default (MPEG)Идентификатор кодека : XVIDИдентификатор кодека/Подсказка : XviDПродолжительность : 38 м.Битрейт : 1795 Кбит/секШирина : 688 пикселейВысота : 512 пикселейСоотношение сторон : 4:3Частота кадров : 25,000 кадров/секЦветовое пространство : YUVСубдискретизация насыщенности : 4:2:0Битовая глубина : 8 битТип развёртки : ПрогрессивнаяМетод сжатия : С потерямиБит/(Пиксели*Кадры) : 0.204Размер потока : 500 Мбайт (93%)Библиотека кодирования : XviD 1.2.1 (UTC 2008-12-04)
АудиоИдентификатор : 1Формат : MPEG AudioВерсия формата : Version 1Профиль формата : Layer 3Идентификатор кодека : 55Идентификатор кодека/Подсказка : MP3Продолжительность : 38 м.Вид битрейта : ПостоянныйБитрейт : 128 Кбит/секКаналы : 2 каналаЧастота : 48,0 КГцМетод сжатия : С потерямиРазмер потока : 35,7 Мбайт (7%)Выравнивание : Соединение по промежуткамПродолжительность промежутка : 40 мс. (1,00 видеокадр)Время предзагрузки промежутка : 504 мс.Библиотека кодирования : LAME3.99rНастройки программы : -m s -V 4 -q 2 -lowpass 17 -b 128

Скриншоты

[teatrix.ru].t11512.torrent 
Торрент: Зарегистрирован [ 2015-12-07 17:45 ] · C59D244DE066AF36C4CB390F5BFF9F3339C783B4

Скачать .torrent

Скачать

11 KB

Статус: проверено
Скачан: 0 раз
Размер: 538 MB
terms.php



Быстрый ответ

Имя:

      
Для отправки сообщений необходимо включить JavaScript
Показать сообщения:    

Текущее время: 05-Дек 19:33

Часовой пояс: UTC + 3


Вы можете начинать темы
Вы можете отвечать на сообщения
Вы не можете редактировать свои сообщения
Вы не можете удалять свои сообщения
Вы не можете голосовать в опросах
Вы не можете прикреплять файлы к сообщениям
Вы можете скачивать файлы