Донатас Банионис. Я остался совсем один [2014, Документальный, биография, искусство, SATRip]


Статистика раздачи [Обновить пиров]
Размер:  542 MB   |    Зарегистрирован:  1 год 1 месяц   |    Скачан:  0 раз
Сидов:  2  [  0 KB/s  ]   Личеров:  2  [  0 KB/s  ]   Подробная статистика пиров
 
   
 
 
 

[Цитировать]

Донатас Банионис. Я остался совсем один
Год выпуска: 2014
Страна: Россия
Жанр: Документальный, биография, искусство
Продолжительность: 00:39:08
Перевод: Не требуется
Русские субтитры: нет
Режиссер: Михаил Ананьев-Описание: Разведчик и герой-любовник, бесстрашный ковбой и знаменитый художник, глава тайного ордена и великий композитор. Ему всегда доставались роли людей, на которых он был совсем не похож...
По сути это биографический фильм, но биография Баниониса рассматривается в неожиданном ракурсе – сквозь призму сыгранных им ролей. Любовь миллионов зрителей, восторженные статьи в прессе, всесоюзная слава – всё это появилось в его жизни, когда он уже был зрелым человеком. Ведь первую большую роль в кино он сыграл в 35 лет. Авторы фильма рассказывают о поворотных моментах в биографии актёра, о знаменитом на весь мир театре в Паневежисе, где много лет проработал Банионис. Вы узнаете о его учителе, режиссёре Мильтинисе, запрещавшем ему сниматься в кино, и о том, что придумал Банионис, чтобы перехитрить режиссёра и обойти этот запрет.
Авторы не могли пройти мимо Оны – верной спутницы, жены Донатаса Баниониса, которая на протяжении 60 лет была верным его советчиком и в профессии, и в жизни. А история их любви не уступала самым закрученным сюжетам романтических любовных фильмов со счастливым концом.-Качество: SATRip
Формат: AVI
Видео: 688x512 (1.34:1), 25 fps, XviD ~1796 kbps, 0.20 bit/pixel
Аудио: 48 kHz, MPEG Layer 3, 2 ch, ~128.00 kbps

MediaInfo

GeneralComplete name : Донатас Банионис. Я остался совсем один (2014).aviFormat : AVIFormat/Info : Audio Video InterleaveFile size : 542 MiBDuration : 39mn 8sOverall bit rate : 1 935 KbpsWriting application : VirtualDubMod 1.5.10.3Writing library : VirtualDubMod build 2550/release
VideoID : 0Format : MPEG-4 VisualFormat profile : Advanced Simple@L5Format settings, BVOP : 2Format settings, QPel : NoFormat settings, GMC : No warppointsFormat settings, Matrix : Default (MPEG)Codec ID : XVIDCodec ID/Hint : XviDDuration : 39mn 8sBit rate : 1 797 KbpsWidth : 688 pixelsHeight : 512 pixelsDisplay aspect ratio : 4:3Frame rate : 25.000 fpsColor space : YUVChroma subsampling : 4:2:0Bit depth : 8 bitsScan type : ProgressiveCompression mode : LossyBits/(Pixel*Frame) : 0.204Stream size : 503 MiB (93%)Writing library : XviD 1.2.1 (UTC 2008-12-04)
AudioID : 1Format : MPEG AudioFormat version : Version 1Format profile : Layer 3Codec ID : 55Codec ID/Hint : MP3Duration : 39mn 8sBit rate mode : ConstantBit rate : 128 KbpsChannel count : 2 channelsSampling rate : 48.0 KHzCompression mode : LossyStream size : 35.8 MiB (7%)Alignment : Aligned on interleavesInterleave, duration : 40 ms (1.00 video frame)Interleave, preload duration : 504 msWriting library : LAME3.99rEncoding settings : -m s -V 4 -q 2 -lowpass 17 -b 128

Скриншоты

Раздача от группы:
[teatrix.ru].t11513.torrent 
Торрент: Зарегистрирован [ 2015-12-07 17:45 ] · 24CC835DBAB5B260279EF401BB0EB28285E9AD6D

Скачать .torrent

Скачать

11 KB

Статус: проверено
Скачан: 0 раз
Размер: 542 MB
terms.php



Быстрый ответ

Имя:

      
Для отправки сообщений необходимо включить JavaScript
Показать сообщения:    

Текущее время: 20-Янв 15:01

Часовой пояс: UTC + 3


Вы можете начинать темы
Вы можете отвечать на сообщения
Вы не можете редактировать свои сообщения
Вы не можете удалять свои сообщения
Вы не можете голосовать в опросах
Вы не можете прикреплять файлы к сообщениям
Вы можете скачивать файлы