Олег Басилашвили. Мастер (Ирина Бессарабова) [2009, Документальный, биография, культура, история, IPTVRip]


Статистика раздачи [Обновить пиров]
Размер:  701 MB   |    Зарегистрирован:  11 месяцев 27 дней   |    Скачан:  0 раз
Сидов:  1  [  0 KB/s  ]   Личеров:  2  [  0 KB/s  ]   Подробная статистика пиров
 
   
 
 
 

[Цитировать]

Олег Басилашвили. Мастер
Дата/Год выпуска: 2009
Страна: Россия
Жанр: Документальный, биография, культура, история
Продолжительность: 00:43:46
Перевод: Не требуется
Русские субтитры: нет
Режиссер: Ирина Бессарабова
Телеканал: ТК "История"
Описание: Документальный фильм об актёре Олеге Басилашвили. Олег Басилашвили никогда не мечтал о роли Гамлета. Он вообще не любит Шекспира, считая его чересчур архаичным. Другое дело - Чехов, превративший театр в общественную кафедру. Для Басилашвили профессия - это жизнь. А искусство имеет смысл только тогда, когда учит жизни. К роли Воланда из "Мастера и Маргариты" он шёл, пожалуй, всю жизнь. Воланд для него - не чёрт и не сатана. Скорее, просто человек, который наделен некими способностями, которых нет у других людей. Главное, ради чего Воланд спускался на землю - посмотреть на москвичей. Булгаковских современников. А может быть, и наших.
Сэмпл: http://multi-up.com/1002262
качество: IPTVRip
формат: AVI
Видео: 720x544 (1.32:1), 25 fps, XviD 64~2037 kbps avg, 0.21 bit/pixel
Аудио: 48 kHz, AC3 Dolby Digital, 2/0 (L,R) ch, ~192 kbps

MediaInfo

GeneralComplete name : L:\Pshichko66\Na zapis'\Документальный фильмы\Oleg Basilashvili. Master.aviFormat : AVIFormat/Info : Audio Video InterleaveFile size : 701 MiBDuration : 43mn 46sOverall bit rate : 2 239 KbpsWriting application : VirtualDubMod 1.5.10.2 (build 2540/release)Writing library : VirtualDubMod build 2540/release
VideoID : 0Format : MPEG-4 VisualFormat profile : Advanced Simple@L5Format settings, BVOP : 2Format settings, QPel : NoFormat settings, GMC : No warppointsFormat settings, Matrix : Default (MPEG)Codec ID : DX50Codec ID/Hint : DivX 5Duration : 43mn 46sBit rate : 2 037 KbpsWidth : 720 pixelsHeight : 544 pixelsDisplay aspect ratio : 4:3Frame rate : 25.000 fpsColor space : YUVChroma subsampling : 4:2:0Bit depth : 8 bitsScan type : ProgressiveCompression mode : LossyBits/(Pixel*Frame) : 0.208Stream size : 638 MiB (91%)Writing library : XviD 64
AudioID : 1Format : AC-3Format/Info : Audio Coding 3Mode extension : CM (complete main)Format settings, Endianness : BigCodec ID : 2000Duration : 43mn 46sBit rate mode : ConstantBit rate : 192 KbpsChannel count : 2 channelsChannel positions : Front: L RSampling rate : 48.0 KHzBit depth : 16 bitsCompression mode : LossyStream size : 60.1 MiB (9%)Alignment : Split accross interleavesInterleave, duration : 40 ms (1.00 video frame)Interleave, preload duration : 500 ms

Скриншоты

[teatrix.ru].t11514.torrent 
Торрент: Зарегистрирован [ 2015-12-07 17:45 ] · 771E39621A07B23B45D58B03526EF509B6F7408F

Скачать .torrent

Скачать

14 KB

Статус: проверено
Скачан: 0 раз
Размер: 701 MB
terms.php



Быстрый ответ

Имя:

      
Для отправки сообщений необходимо включить JavaScript
Показать сообщения:    

Текущее время: 04-Дек 02:54

Часовой пояс: UTC + 3


Вы можете начинать темы
Вы можете отвечать на сообщения
Вы не можете редактировать свои сообщения
Вы не можете удалять свои сообщения
Вы не можете голосовать в опросах
Вы не можете прикреплять файлы к сообщениям
Вы можете скачивать файлы