Трагедии внуков Сталина (Денис Шулепов) [25/09/2014, Документальный, SATRip]


Статистика раздачи [Обновить пиров]
Размер:  599 MB   |    Зарегистрирован:  11 месяцев   |    Скачан:  0 раз

Полного источника не было: Никогда

Личеров:  2  [  0 KB/s  ]   Подробная статистика пиров
 
   
 
 
 

[Цитировать]

Трагедии внуков Сталина
Дата/Год выпуска: 25/09/2014
Страна: Россия
Жанр: Документальный
Продолжительность: 00:41:48
Перевод: Не требуется
Режиссер: Денис Шулепов
Телеканал: Россия
Описание: Их жизни не простые, а зачастую в них случаются трагедии. Галя решила связать свою судьбу с арабским гражданином Бен Саидом и подарила ему ребенка. Потом всю жизнь находилась на двух работах переводчиком и писателем. Женя Джугашвили решил стать военным историком, однако его так и не признали родственники, поэтому он очень переживал. Однако его время от времени он ездил заграницу как внук Сталина. Но самой трагичной была судьба Василия Джугашвили. Из всех внуков Сталина хорошее будущее было только у Александра – сына Василия, он стал заслуженным режиссером. Надежда погибла от алкогольной зависимости, Светлана от болезни, а Василий стал наркоманом и погиб. Приемные дочери Василия не стали брать его фамилию. Дети Светы – Иосиф и Катерина – убежали из страны и прекратили всякую связь с родственниками, даже не прибыв на похороны своего первого сына, хотя знала о его смерти. А вот Катя и отказалось от родной матери, и проживает подальше от всех на Камчатке, после отказа ее отца дать ей квартиру в столице, а она хотела туда отправиться, чтобы жить на пенсии. Не общается со Светой даже ее дочь Ольга, которая проживает в США. Она долгое время требовала у властей СССР прописки в Москве, чтобы спокойно жить и трудиться. В этом фильме будут показаны фото и видео материалы, которые до этого никто не видел.
качество: SATRip
формат: AVI
Видео: XviD, 720x528 25.00fps 1800kbps
Аудио: AC3, 48000Hz stereo 192kbps

MediaInfo

Программа кодирования : VirtualDubMod 1.5.10.3 | www.virtualdub-fr.org || (build 2550/release)Библиотека кодирования : VirtualDubMod build 2550/release
ВидеоИдентификатор : 0Формат : MPEG-4 VisualПрофиль формата : Advanced Simple@L5Параметр BVOP формата : 2Параметр QPel формата : НетПараметр GMC формата : Без точки переходаПараметр матрицы формата : Default (H.263)Идентификатор кодека : XVIDИдентификатор кодека/Подсказка : XviDПродолжительность : 41 м.Битрейт : 1800 Кбит/секШирина : 720 пикселейВысота : 528 пикселейСоотношение сторон : 4:3Частота кадров : 25,000 кадров/секЦветовое пространство : YUVСубдискретизация насыщенности : 4:2:0Битовая глубина : 8 битТип развёртки : ПрогрессивнаяМетод сжатия : С потерямиБит/(Пиксели*Кадры) : 0.189Размер потока : 538 Мбайт (90%)Библиотека кодирования : XviD 1.2.1 (UTC 2008-12-04)
АудиоИдентификатор : 1Формат : AC-3Формат/Информация : Audio Coding 3Расширение режима : CM (complete main)Параметр Endianness формата : BigИдентификатор кодека : 2000Продолжительность : 41 м.Вид битрейта : ПостоянныйБитрейт : 192 Кбит/секКаналы : 2 каналаРасположение каналов : Front: L RЧастота : 48,0 КГцБитовая глубина : 16 битМетод сжатия : С потерямиРазмер потока : 57,4 Мбайт (10%)Выравнивание : Разделение по промежуткамПродолжительность промежутка : 40 мс. (1,00 видеокадр)Время предзагрузки промежутка : 500 мс.

Скриншоты

[teatrix.ru].t11515.torrent 
Торрент: Зарегистрирован [ 2015-12-07 17:45 ] · 35C7568C282BA3137D44AA8819ECAA8B1B42EAD8

Скачать .torrent

Скачать

12 KB

Статус: проверено
Скачан: 0 раз
Размер: 599 MB
terms.php



Быстрый ответ

Имя:

      
Для отправки сообщений необходимо включить JavaScript
Показать сообщения:    

Текущее время: 06-Дек 15:05

Часовой пояс: UTC + 3


Вы можете начинать темы
Вы можете отвечать на сообщения
Вы не можете редактировать свои сообщения
Вы не можете удалять свои сообщения
Вы не можете голосовать в опросах
Вы не можете прикреплять файлы к сообщениям
Вы можете скачивать файлы