Вера, надежда, любовь Елены Серовой (Алексей Китайцев) [2014, Документальный, HDTVRip]


Статистика раздачи [Обновить пиров]
Размер:  550 MB   |    Зарегистрирован:  11 месяцев 26 дней   |    Скачан:  0 раз
Сидов:  1  [  0 KB/s  ]   Личеров:  2  [  0 KB/s  ]   Подробная статистика пиров
 
   
 
 
 

[Цитировать]

Вера, надежда, любовь Елены Серовой
Год выпуска: 2014
Страна: Россия, ВГТРК
Жанр: Документальный
Продолжительность: 00:44:17
Перевод: Не требуется
Русские субтитры: нет
Режиссер: Алексей Китайцев
Телеканал: Россия 1
Описание: Елена Серова - четвертая российская женщина-космонавт. Она собирается лететь на МКС 26 сентября 2014 года. Первое и самое тяжелое испытание для нее - это долгие расставания с мужем и дочкой. Впрочем, и Марк, и Лена-младшая к этими разлукам привыкли. В течение нескольких лет подготовки к полету она пропадала на тренировках. То по пять дней выживала в заснеженном лесу, то неделями подавала сигналы бедствия на море, то по шесть часов в тяжелом скафандре тренировалась в огромном бассейне подводного космоса, после чего сутки нужно приходить в себя. Подготовка теперь позади. Елена ни в чем не уступила окружавшим ее мужчинам. И даже доказала, что в чем-то может быть даже сильней и настойчивее своих коллег. Героинями документального фильма стали: Пегги Уитсон - первая в истории женщина-командир МКС, Николь Стотт - астронавт-исследователь, дважды побывавшая в космосе, Кэтрин Колман, - блестяще осуществившая стыковку нового американского корабля "Дракон" с МКС, Валентина Терешкова, Светлана Савицкая, Елена Кондакова - третья российская женщина-космонавт.
качество: HDTVRip
формат: AVI
Видео: 720x400 (1.80:1), 25 fps, XviD build 73 ~1533 kbps avg, 0.21 bit/pixel
Аудио: 48 kHz, AC3 Dolby Digital, 2/0 (L,R) ch, ~192.00 kbps avg
Релиз от:

MediaInfo

GeneralComplete name : D:\Раздачи\General\Vera.nadezhda.lyubov'.Eleny.Serovoy.2014\720х400\Vera.nadezhda.lyubov'.Eleny.Serovoy.2014.HDTVRip.Generalfilm.aviFormat : AVIFormat/Info : Audio Video InterleaveFile size : 550 MiBDuration : 44mn 17sOverall bit rate : 1 736 KbpsWriting application : VirtualDubMod 1.5.10.3 | www.virtualdub-fr.org || (build 2550/release)Writing library : VirtualDubMod build 2550/release
VideoID : 0Format : MPEG-4 VisualFormat profile : Advanced Simple@L5Format settings, BVOP : YesFormat settings, QPel : NoFormat settings, GMC : No warppointsFormat settings, Matrix : CustomCodec ID : XVIDCodec ID/Hint : XviDDuration : 44mn 17sBit rate : 1 534 KbpsWidth : 720 pixelsHeight : 400 pixelsDisplay aspect ratio : 16:9Frame rate : 25.000 fpsColor space : YUVChroma subsampling : 4:2:0Bit depth : 8 bitsScan type : ProgressiveBits/(Pixel*Frame) : 0.213Stream size : 486 MiB (88%)Writing library : XviD 73
AudioID : 1Format : AC-3Format/Info : Audio Coding 3Mode extension : CM (complete main)Codec ID : 2000Duration : 44mn 17sBit rate mode : ConstantBit rate : 192 KbpsChannel(s) : 2 channelsChannel positions : Front: L RSampling rate : 48.0 KHzStream size : 60.8 MiB (11%)Alignment : Split accross interleavesInterleave, duration : 40 ms (1.00 video frame)Interleave, preload duration : 500 ms

Скриншоты


[teatrix.ru].t11516.torrent 
Торрент: Зарегистрирован [ 2015-12-07 17:45 ] · 43BD9C7571C7D487B2A22F0AE3D1A8F5B820E4B1

Скачать .torrent

Скачать

11 KB

Статус: проверено
Скачан: 0 раз
Размер: 550 MB
terms.php



Быстрый ответ

Имя:

      
Для отправки сообщений необходимо включить JavaScript
Показать сообщения:    

Текущее время: 03-Дек 05:29

Часовой пояс: UTC + 3


Вы можете начинать темы
Вы можете отвечать на сообщения
Вы не можете редактировать свои сообщения
Вы не можете удалять свои сообщения
Вы не можете голосовать в опросах
Вы не можете прикреплять файлы к сообщениям
Вы можете скачивать файлы