Владимир Меньшов - С ним же по улице нельзя пройти (Яков Плоткин) [2014, Документальный, SATRip]


Статистика раздачи [Обновить пиров]
Размер:  716 MB   |    Зарегистрирован:  1 год   |    Скачан:  0 раз

Полного источника не было: Никогда

Личеров:  2  [  0 KB/s  ]   Подробная статистика пиров
 
   
 
 
 

[Цитировать]

Владимир Меньшов - С ним же по улице нельзя пройти
Дата/Год выпуска: 2014
Страна: Россия
Жанр: Документальный
Продолжительность: 00:49:59
Перевод: Не требуется
Русские субтитры: нет
Оригинальная аудиодорожка: русский
Режиссер: Яков Плоткин
Описание: Он не должен был стать режиссером или артистом. Владимира Меньшова готовили к военной карьере, а он в юности влюбился в мир кинематографа."Я поменял вектор, который мне был предписан судьбой", - говорит Владимир Меньшов и добавляет: "Я понял, что без кино не выживу".Фильм - об истории фантастического успеха Владимира Меньшова. Владимир Меньшов снял всего пять картин, но зато каких! Знаменитые "Москва слезам не верит" и "Любовь и голуби" остаются одними из самых популярных и любимых зрителями фильмов. Хотя путь к успеху был трудным.Когда в 1979-м в прокат вышел фильм "Москва слезам не верит", только за год его посмотрело почти 90 миллионов зрителей. Создатели картины получали мешки писем от потрясенных людей, а пресса в это же самое время писала о потакании дурным вкусам мещан и о слабой режиссуре. А фильм жил своей жизнью, не сходил с экранов кинотеатров, его купили более ста стран, он завоевал призы на множестве международных кинофестивалей, создатели фильма получили Государственную премию СССР. В довершение всего Американская академия киноискусства в 1981 году назвала фильм "Москва слезам не верит" лучшим иностранным фильмом года и присудила ему "Оскар". Однако самому режиссёру знаменитую статуэтку вручили только спустя несколько лет. В 1984 году Меньшов снял картину "Любовь и голуби" по одноименной пьесе Владимира Гуркина. Прокатная судьба этого фильма была подпорчена тем, что он попал под каток начавшейся тогда кампании борьбы с алкоголизмом. А поскольку один из героев картины, блистательно сыгранный Сергеем Юрским, постоянно находился в состоянии подпития, то Меньшова, не соглашавшегося ни с какими поправками по фильму, сначала отстранили от картины, потом вырезали из нее все подозрительные сцены и положили на полку. И только через полгода фильм восстановили и выпустили на экраны. Следующий фильм Меньшова появился на экранах через 11 лет. История о братьях-близнецах "Ширли-мырли" вышла на экраны в 1995 году. Последняя по времени работа Владимира Меньшова – лирическая трагедия (так он сам определяет жанр фильма) "Зависть богов" закончена в 2000 году. Сейчас он снимается в кино, а кино не снимает. Почему? На этот вопрос режиссер даст ответ в фильме.
Сэмпл
качество: SATRip
формат: AVI
Видео: 704x448 (1.57:1), 25 fps, XviD build 50 ~1799 kbps avg, 0.23 bit/pixel
Аудио: 48 kHz, AC3 Dolby Digital, 2/0 (L,R) ch, ~192 kbps

MediaInfo

ОбщееПолное имя : D:\Video\Vladimir.Men'shov.S.nim.zhe.po.ulice.nel'zja.projti.(2014).XviD.SATRip.aviФормат : AVIФормат/Информация : Audio Video InterleaveРазмер файла : 716 МбайтПродолжительность : 49 м.Общий поток : 2002 Кбит/секПрограмма кодирования : VirtualDubMod 1.5.10.3 | www.virtualdub-fr.org || (build 2550/release)Библиотека кодирования : VirtualDubMod build 2550/release
ВидеоИдентификатор : 0Формат : MPEG-4 VisualПрофиль формата : Advanced Simple@L5Параметр BVOP формата : 2Параметр QPel формата : НетПараметр GMC формата : Без точки переходаПараметр матрицы формата : Default (H.263)Идентификатор кодека : XVIDИдентификатор кодека/Подсказка : XviDПродолжительность : 49 м.Битрейт : 1800 Кбит/секШирина : 704 пикселяВысота : 448 пикселейСоотношение сторон : 16:10Частота кадров : 25,000 кадров/секЦветовое пространство : YUVСубдискретизация насыщенности : 4:2:0Битовая глубина : 8 битТип развёртки : ПрогрессивнаяМетод сжатия : С потерямиБит/(Пиксели*Кадры) : 0.228Размер потока : 643 Мбайт (90%)Библиотека кодирования : XviD 1.2.1 (UTC 2008-12-04)
АудиоИдентификатор : 1Формат : AC-3Формат/Информация : Audio Coding 3Расширение режима : CM (complete main)Параметр Endianness формата : BigИдентификатор кодека : 2000Продолжительность : 49 м.Вид битрейта : ПостоянныйБитрейт : 192 Кбит/секКаналы : 2 каналаРасположение каналов : Front: L RЧастота : 48,0 КГцБитовая глубина : 16 битМетод сжатия : С потерямиРазмер потока : 68,6 Мбайт (10%)Выравнивание : Разделение по промежуткамПродолжительность промежутка : 40 мс. (1,00 видеокадр)Время предзагрузки промежутка : 500 мс.

Скриншоты

[teatrix.ru].t11518.torrent 
Торрент: Зарегистрирован [ 2015-12-07 17:45 ] · EB5285B4D03F063F69C45860F84C195CC61DCB2E

Скачать .torrent

Скачать

15 KB

Статус: проверено
Скачан: 0 раз
Размер: 716 MB
terms.php



Быстрый ответ

Имя:

      
Для отправки сообщений необходимо включить JavaScript
Показать сообщения:    

Текущее время: 11-Дек 11:04

Часовой пояс: UTC + 3


Вы можете начинать темы
Вы можете отвечать на сообщения
Вы не можете редактировать свои сообщения
Вы не можете удалять свои сообщения
Вы не можете голосовать в опросах
Вы не можете прикреплять файлы к сообщениям
Вы можете скачивать файлы