Генерал Ватутин. Тайна гибели (Евгений Кириченко) [19/09/2014, Документальный, SATRip]


Статистика раздачи [Обновить пиров]
Размер:  487 MB   |    Зарегистрирован:  11 месяцев 27 дней   |    Скачан:  0 раз

Полного источника не было: Никогда

Личеров:  2  [  0 KB/s  ]   Подробная статистика пиров
 
   
 
 
 

[Цитировать]

Генерал Ватутин. Тайна гибели
Дата/Год выпуска: 19/09/2014
Страна: Россия
Жанр: Документальный
Продолжительность: 00:38:06
Перевод: Не требуется
Режиссер: Евгений Кириченко
Телеканал: ОАО «ТРК ВС РФ «ЗВЕЗДА»
Описание: Полководческая звезда Н.Ф. Ватутина окончательно взошла после освобождения Киева войсками 1-го Украинского фронта, которым он тогда командовал. И все же 42-летний Ватутин свои маршальские погоны получить не успел. 29 февраля 1944 года генерал армии Ватутин угодил в засаду бандеровцев под Ровно, получил ранение и вскоре после того умер.

Продолжение…

Его гибель, обстоятельства которой до сих пор засекречены, оставила множество загадок. Почему материалы расследования НКВД семидесятилетней давности до сих пор находятся под грифом «секретно»?
Чтобы попытаться ответить на эти вопросы, военный журналист Евгений Кириченко побывал на месте засады под Ровно, разыскал все имеющиеся в архивах документы, а также побеседовал с членами семьи Ватутина и российскими и украинскими историками, работавшими над выяснением этих странных обстоятельств.
качество: SATRip
формат: AVI
Видео: MPEG4, XviD, 720x400 (1.800), 25.000 fps, ~1649 Kbps, 0.229 bit/pixel
Аудио: 48 kHz, MPEG Layer 3, 2 ch, ~128.00 kbps avg

MediaInfo

Формат : AVI
Формат/Информация : Audio Video Interleave
Размер файла : 487 Мбайт
Продолжительность : 38 м.
Общий поток : 1787 Кбит/сек
Видео
Идентификатор : 0
Формат : MPEG-4 Visual
Профиль формата : Advanced Simple@L5
Параметр BVOP формата : 2
Параметр QPel формата : Нет
Параметр GMC формата : Без точки перехода
Параметр матрицы формата : Default (H.263)
Идентификатор кодека : XVID
Идентификатор кодека/Подсказка : XviD
Продолжительность : 38 м.
Битрейт : 1649 Кбит/сек
Ширина : 720 пикселей
Высота : 400 пикселей
Соотношение сторон : 16:9
Частота кадров : 25,000 кадров/сек
Цветовое пространство : YUV
Субдискретизация насыщенности : 4:2:0
Битовая глубина : 8 бит
Тип развёртки : Прогрессивная
Метод сжатия : С потерями
Бит/(Пиксели*Кадры) : 0.229
Размер потока : 449 Мбайт (92%)
Библиотека кодирования : XviD 64
Аудио
Идентификатор : 1
Формат : MPEG Audio
Версия формата : Version 1
Профиль формата : Layer 3
Режим : Joint stereo
Расширение режима : MS Stereo
Идентификатор кодека : 55
Идентификатор кодека/Подсказка : MP3
Продолжительность : 38 м.
Вид битрейта : Постоянный
Битрейт : 128 Кбит/сек
Каналы : 2 канала
Частота : 48,0 КГц
Метод сжатия : С потерями
Размер потока : 34,9 Мбайт (7%)
Выравнивание : Разделение по промежуткам
Продолжительность промежутка : 40 мс. (1,00 видеокадр)
Время предзагрузки промежутка : 500 мс.

Скриншоты

[teatrix.ru].t11519.torrent 
Торрент: Зарегистрирован [ 2015-12-07 17:45 ] · 39A38BB8F6775C45D9F1DD42D23EE1F804EF3668

Скачать .torrent

Скачать

10 KB

Статус: проверено
Скачан: 0 раз
Размер: 487 MB
terms.php



Быстрый ответ

Имя:

      
Для отправки сообщений необходимо включить JavaScript
Показать сообщения:    

Текущее время: 03-Дек 22:47

Часовой пояс: UTC + 3


Вы можете начинать темы
Вы можете отвечать на сообщения
Вы не можете редактировать свои сообщения
Вы не можете удалять свои сообщения
Вы не можете голосовать в опросах
Вы не можете прикреплять файлы к сообщениям
Вы можете скачивать файлы