В поисках утраченного. Георгий Вицин (Ольга Мозалева) [1999, документальный, биография, SATRip]


Статистика раздачи [Обновить пиров]
Размер:  406 MB   |    Зарегистрирован:  11 месяцев 26 дней   |    Скачан:  0 раз

Полного источника не было: Никогда

Личеров:  2  [  0 KB/s  ]   Подробная статистика пиров
 
   
 
 
 

[Цитировать]

В поисках утраченного. Георгий Вицин
Год выпуска: 1999
Страна: Россия
Жанр: документальный, биография
Продолжительность: 00:34:41
Перевод: Не требуется
Русские субтитры: нет
Режиссер: Ольга Мозалева
Телеканал: Россия, АТВ («Авторское телевидение»)
Описание: Тематическая программа об искусстве.
Автор и ведущий Глеб Скороходов рассказывает о ведущих мастерах театра и кино, чьи имена сейчас несправедливо забываются.
В передачах: встречи с народным артистом республики Владимиром Володиным - замечательным комедийным актером, сыгравшим незабываемые роли в фильмах "Волга-Волга", "Кубанские казаки", "Первая перчатка", "Цирк", с выдающейся актрисой Фаиной Георгиевной Раневской, чьи роли в фильмах "Весна", "Свадьба" вошли в золотой фонд российского кинематографа, Петром Алейниковым ("Семеро смелых", "Трактористы", "Большая жизнь"). Друзья и коллеги вспоминают о Сергее Герасимове и Станиславе Ростоцком. Выпуски-воспоминания также были посвящены: Борису Бабочкину, Исааку Дунаевскому, Любови Орловой, Леониду Гайдаю, Татьяне Пельтцер, Павлу Кадочникову, Соломону Михоэлсу и многим-многим другим. Лауреат ТЭФИ-97 в номинации "Лучшая программа об искусстве".
Этот выпуск посвящен великому актеру, комику Георгию Вицину.

Доп. информация: Благодарю за видео Человек91 с форума кинозал-тв.
Сэмпл: https://www.sendspace.com/file/mqn732
Качество: SATRip
Формат: AVI
Видео кодек: DIVX
Аудио кодек: MPEG Audio Layer 3
Видео: 688x528 (4:3) 25.00fps 1499Kbps
Аудио: 48000Hz stereo 128Kbps 2 ch

MediaInfo

Формат : AVIФормат/Информация : Audio Video InterleaveРазмер файла : 406 МбайтПродолжительность : 34 м.Общий поток : 1638 Кбит/секПрограмма кодирования : VirtualDubMod 1.5.10.2 (build 2540/release)Библиотека кодирования : VirtualDubMod build 2540/release
ВидеоИдентификатор : 0Формат : MPEG-4 VisualПрофиль формата : Simple@L1Параметр BVOP формата : НетПараметр QPel формата : НетПараметр GMC формата : Без точки переходаПараметр матрицы формата : Default (H.263)Идентификатор кодека : DIVXИдентификатор кодека/Информация : Project MayoИдентификатор кодека/Подсказка : DivX 4Продолжительность : 34 м.Битрейт : 1500 Кбит/секШирина : 688 пикселейВысота : 528 пикселейСоотношение сторон : 4:3Частота кадров : 25,000 кадров/секЦветовое пространство : YUVСубдискретизация насыщенности : 4:2:0Битовая глубина : 8 битТип развёртки : ПрогрессивнаяМетод сжатия : С потерямиБит/(Пиксели*Кадры) : 0.165Размер потока : 372 Мбайт (92%)Библиотека кодирования : Lavc52.61.0
АудиоИдентификатор : 1Формат : MPEG AudioВерсия формата : Version 1Профиль формата : Layer 3Идентификатор кодека : 55Идентификатор кодека/Подсказка : MP3Продолжительность : 34 м.Вид битрейта : ПостоянныйБитрейт : 128 Кбит/секКаналы : 2 каналаЧастота : 48,0 КГцМетод сжатия : С потерямиРазмер потока : 31,8 Мбайт (8%)Выравнивание : Соединение по промежуткамПродолжительность промежутка : 40 мс. (1,00 видеокадр)Время предзагрузки промежутка : 504 мс.Библиотека кодирования : LAME3.98rНастройки программы : -m s -V 4 -q 2 -lowpass 17 -b 128

Скриншоты

[teatrix.ru].t11520.torrent 
Торрент: Зарегистрирован [ 2015-12-07 17:45 ] · F506311A91FBA191A4A68FF290F5CD428ADE0B8B

Скачать .torrent

Скачать

16 KB

Статус: проверено
Скачан: 0 раз
Размер: 406 MB
terms.php



Быстрый ответ

Имя:

      
Для отправки сообщений необходимо включить JavaScript
Показать сообщения:    

Текущее время: 03-Дек 01:22

Часовой пояс: UTC + 3


Вы можете начинать темы
Вы можете отвечать на сообщения
Вы не можете редактировать свои сообщения
Вы не можете удалять свои сообщения
Вы не можете голосовать в опросах
Вы не можете прикреплять файлы к сообщениям
Вы можете скачивать файлы