Луи де Фюнес - Человек оркестр (Татьяна Варданян) [2014, Документальный, биография, SATRip]


Статистика раздачи [Обновить пиров]
Размер:  609 MB   |    Зарегистрирован:  1 год   |    Скачан:  0 раз

Полного источника не было: Никогда

Личеров:  2  [  0 KB/s  ]   Подробная статистика пиров
 
   
 
 
 

[Цитировать]

Луи де Фюнес - Человек оркестр
Год выпуска: 2014
Страна: Россия
Жанр: Документальный, биография
Продолжительность: 00:49:59
Перевод: Не требуется
Русские субтитры: нет
Режиссер: Татьяна Варданян
Телеканал: Первый канал
Описание: "Человек, о котором мы будем сегодня говорить, великий французский актер, ставший на многие годы для российской публики чуть ли не символом французского кинематографа"
Доп. информация: В ролях: Клод Зиди, Татьяна Конюхова, Григорий Сиятвинда, Эвелина Блёданс, Евгений Стычкин
Благодарю за видео Человек91с форума кинозал-тв.
Сэмпл: https://www.sendspace.com/file/6lk8hq
Качество: SATRip
Формат: AVI
Видео кодек: XviD
Аудио кодек: AC3
Видео: 704x448 (16:10) 25.00fps 1500Kbps
Аудио: 48000Hz stereo 192Kbps 2 ch

MediaInfo

Формат : AVIФормат/Информация : Audio Video InterleaveРазмер файла : 609 МбайтПродолжительность : 49 м.Общий поток : 1703 Кбит/секПрограмма кодирования : VirtualDubMod 1.5.10.3 | www.virtualdub-fr.org || (build 2550/release)Библиотека кодирования : VirtualDubMod build 2550/release
ВидеоИдентификатор : 0Формат : MPEG-4 VisualПрофиль формата : Advanced Simple@L5Параметр BVOP формата : 2Параметр QPel формата : НетПараметр GMC формата : Без точки переходаПараметр матрицы формата : Default (H.263)Идентификатор кодека : XVIDИдентификатор кодека/Подсказка : XviDПродолжительность : 49 м.Битрейт : 1501 Кбит/секШирина : 704 пикселяВысота : 448 пикселейСоотношение сторон : 16:10Частота кадров : 25,000 кадров/секЦветовое пространство : YUVСубдискретизация насыщенности : 4:2:0Битовая глубина : 8 битТип развёртки : ПрогрессивнаяМетод сжатия : С потерямиБит/(Пиксели*Кадры) : 0.190Размер потока : 537 Мбайт (88%)Библиотека кодирования : XviD 1.2.1 (UTC 2008-12-04)
АудиоИдентификатор : 1Формат : AC-3Формат/Информация : Audio Coding 3Расширение режима : CM (complete main)Параметр Endianness формата : BigИдентификатор кодека : 2000Продолжительность : 49 м.Вид битрейта : ПостоянныйБитрейт : 192 Кбит/секКаналы : 2 каналаРасположение каналов : Front: L RЧастота : 48,0 КГцБитовая глубина : 16 битМетод сжатия : С потерямиРазмер потока : 68,6 Мбайт (11%)Выравнивание : Разделение по промежуткамПродолжительность промежутка : 40 мс. (1,00 видеокадр)Время предзагрузки промежутка : 500 мс.

Скриншоты

[teatrix.ru].t11521.torrent 
Торрент: Зарегистрирован [ 2015-12-07 17:45 ] · 75A4CF9ACDBEDA0C3926866983286663E8EA7D67

Скачать .torrent

Скачать

12 KB

Статус: проверено
Скачан: 0 раз
Размер: 609 MB
terms.php



Быстрый ответ

Имя:

      
Для отправки сообщений необходимо включить JavaScript
Показать сообщения:    

Текущее время: 10-Дек 10:01

Часовой пояс: UTC + 3


Вы можете начинать темы
Вы можете отвечать на сообщения
Вы не можете редактировать свои сообщения
Вы не можете удалять свои сообщения
Вы не можете голосовать в опросах
Вы не можете прикреплять файлы к сообщениям
Вы можете скачивать файлы