Великий Шаляпин (Юрий Альдохин) [1992, Документальный, биография, история, DVDRip]


Статистика раздачи [Обновить пиров]
Размер:  1.37 GB   |    Зарегистрирован:  11 месяцев   |    Скачан:  0 раз

Полного источника не было: Никогда

Личеров:  2  [  0 KB/s  ]   Подробная статистика пиров
 
   
 
 
 

[Цитировать]

Великий Шаляпин
Дата/Год выпуска: 1992
Страна: Россия, ВидеоФильм
Жанр: Документальный, биография, история
Продолжительность: 01:42:05
Перевод: Не требуется
Русские субтитры: нет
Режиссер: Юрий Альдохин
Описание: Шаляпин, человек интереснейшей биографии, как принято сейчас говорить, сам себя сделавший, талантом был наделен от Бога. Но до гения оперы, каким его знает и до сих пор чтит весь мир, развил свой талант он сам - упорным трудом, постоянным впитыванием новых знаний, постоянным постижением тайн искусства. Более сорока лет служил артист "на театрах", восхищая зрителей певческим и актерским мастерством. Русский гений, Шаляпин умер в Париже, 12 апреля 1938 года. Разлука с родиной, с русским народом, с детьми от первого брака стала его трагедией. Человек сильный и мужественный, он не потерялся, смог пережить потерю. И только родина его - Россия - потери пережить не смогла.
В фильме первом рассказывается о периоде предреволюционном, отъезде Шаляпина за границу после революции, о его жизни в эмиграции. Много интересного о своем отце рассказывают дочери Федора Ивановича - Стелла (приемная дочь), Марина, Марфа, Татьяна, сын Федор.
Фильм второй посвящен периоду конца ХIХ-го - начала ХХ-го века - началу его творческой биографии, времени зарождения всемирной славы певца. В фильмах использованы уникальные аудио и кинофрагменты из архивов всего мира.
Сэмпл: http://multi-up.com/999407
качество: DVDRip
формат: AVI
Видео: 704x528 (1.33:1), 25 fps, XviD build 50 ~1802 kbps , 0.19 bit/pixel
Аудио: 48 kHz, AC3 Dolby Digital, 2/0 (L,R) ch, ~192 kbps

MediaInfo

ОбщееПолное имя : Великий Шаляпин (2 фильма из 2)\Шаляпин 1.aviФормат : AVIФормат/Информация : Audio Video InterleaveРазмер файла : 728 МбайтПродолжительность : 50 м.Общий поток : 2004 Кбит/секПрограмма кодирования : VirtualDubMod 1.5.10.2 (build 2540/release)Библиотека кодирования : Boilsoft AVI tool build 30012/release
ВидеоИдентификатор : 0Формат : MPEG-4 VisualПрофиль формата : Advanced Simple@L5Параметр BVOP формата : 1Параметр QPel формата : НетПараметр GMC формата : Без точки переходаПараметр матрицы формата : Default (H.263)Идентификатор кодека : XVIDИдентификатор кодека/Подсказка : XviDПродолжительность : 50 м.Битрейт : 1802 Кбит/секШирина : 704 пикселяВысота : 528 пикселейСоотношение сторон : 4:3Частота кадров : 25,000 кадров/секЦветовое пространство : YUVСубдискретизация насыщенности : 4:2:0Битовая глубина : 8 битТип развёртки : ПрогрессивнаяМетод сжатия : С потерямиБит/(Пиксели*Кадры) : 0.194Размер потока : 655 Мбайт (90%)Библиотека кодирования : XviD 1.2.1 (UTC 2008-12-04)
АудиоИдентификатор : 1Формат : AC-3Формат/Информация : Audio Coding 3Расширение режима : CM (complete main)Параметр Endianness формата : BigИдентификатор кодека : 2000Продолжительность : 50 м.Вид битрейта : ПостоянныйБитрейт : 192 Кбит/секКаналы : 2 каналаРасположение каналов : Front: L RЧастота : 48,0 КГцБитовая глубина : 16 битМетод сжатия : С потерямиРазмер потока : 69,7 Мбайт (10%)Выравнивание : Разделение по промежуткамПродолжительность промежутка : 40 мс. (1,00 видеокадр)Время предзагрузки промежутка : 500 мс.

Скриншоты

[teatrix.ru].t11522.torrent 
Торрент: Зарегистрирован [ 2015-12-07 17:45 ] · 5048EF704F7F886A4B9BD60F5E22D336CE476947

Скачать .torrent

Скачать

14 KB

Статус: проверено
Скачан: 0 раз
Размер: 1.37 GB
terms.php



Быстрый ответ

Имя:

      
Для отправки сообщений необходимо включить JavaScript
Показать сообщения:    

Текущее время: 05-Дек 17:35

Часовой пояс: UTC + 3


Вы можете начинать темы
Вы можете отвечать на сообщения
Вы не можете редактировать свои сообщения
Вы не можете удалять свои сообщения
Вы не можете голосовать в опросах
Вы не можете прикреплять файлы к сообщениям
Вы можете скачивать файлы