Гении и злодеи уходящей эпохи. Фёдор Шаляпин (Юлия Панкосьянова) [2000, Документальный, биография, музыка, история, культура, TVRip]


Статистика раздачи [Обновить пиров]
Размер:  388 MB   |    Зарегистрирован:  11 месяцев 27 дней   |    Скачан:  0 раз

Полного источника не было: Никогда

Личеров:  2  [  0 KB/s  ]   Подробная статистика пиров
 
   
 
 
 

[Цитировать]

Гении и злодеи уходящей эпохи. Фёдор Шаляпин
Дата/Год выпуска: 2000
Страна: Россия
Жанр: Документальный, биография, музыка, история, культура
Продолжительность: 00:27:58
Перевод: Не требуется
Русские субтитры: нет
Режиссер: Юлия Панкосьянова
Телеканал: ОАО"ОРТ"
Описание: Гении и злодеи. Кому обязано человечество нынешним своим существованием в третьем тысячелетии? Гениям или злодеям? Чей вклад больше? Чье влияние сильнее? Отчего «магнитное поле» первых так привлекает вторых? Зависть или объективная необходимость? Страшный вопрос: как связаны гениальность и злодейство и насколько допустимо думать, что они дополняют друг друга?
Ведущий: Лев Николаев
Сэмпл: http://multi-up.com/999229
качество: TVRip
формат: AVI
Видео: 704x528 (1.33:1), 25.000 fps, DivX Codec 5.2.1 build 1338 ~1799 kbps , 0.19 bit/pixel
Аудио: 48 kHz, MPEG Layer 3, 2 ch, ~128.00 kbps

MediaInfo

ОбщееПолное имя : Гении.и.злодеи.уходящей.эпохи.Фёдор.Шаляпин.2000.TVRip.aviФормат : AVIФормат/Информация : Audio Video InterleaveРазмер файла : 388 МбайтПродолжительность : 27 м.Общий поток : 1937 Кбит/секБиблиотека кодирования : VirtualDub build 32661/release
ВидеоИдентификатор : 0Формат : MPEG-4 VisualПараметр BVOP формата : НетПараметр QPel формата : НетПараметр GMC формата : Без точки переходаПараметр матрицы формата : Default (H.263)Идентификатор кодека : DX50Идентификатор кодека/Подсказка : DivX 5Продолжительность : 27 м.Битрейт : 1800 Кбит/секШирина : 704 пикселяВысота : 528 пикселейСоотношение сторон : 4:3Частота кадров : 25,000 кадров/секЦветовое пространство : YUVСубдискретизация насыщенности : 4:2:0Битовая глубина : 8 битТип развёртки : ПрогрессивнаяМетод сжатия : С потерямиБит/(Пиксели*Кадры) : 0.194Размер потока : 360 Мбайт (93%)Библиотека кодирования : DivX 5.2.1 (DrDivX 106) (UTC 2004-09-08)
АудиоИдентификатор : 1Формат : MPEG AudioВерсия формата : Version 1Профиль формата : Layer 3Режим : Joint stereoРасширение режима : MS StereoИдентификатор кодека : 55Идентификатор кодека/Подсказка : MP3Продолжительность : 27 м.Вид битрейта : ПостоянныйБитрейт : 128 Кбит/секКаналы : 2 каналаЧастота : 48,0 КГцМетод сжатия : С потерямиЗадержка видео : 16 мс.Размер потока : 25,6 Мбайт (7%)Выравнивание : Разделение по промежуткамПродолжительность промежутка : 40 мс. (1,00 видеокадр)Время предзагрузки промежутка : 500 мс.

Скриншоты

[teatrix.ru].t11523.torrent 
Торрент: Зарегистрирован [ 2015-12-07 17:45 ] · 7F6B3B2F7AB625CD15C6EAB9F3480DFF703A9C06

Скачать .torrent

Скачать

16 KB

Статус: проверено
Скачан: 0 раз
Размер: 388 MB
terms.php



Быстрый ответ

Имя:

      
Для отправки сообщений необходимо включить JavaScript
Показать сообщения:    

Текущее время: 04-Дек 15:19

Часовой пояс: UTC + 3


Вы можете начинать темы
Вы можете отвечать на сообщения
Вы не можете редактировать свои сообщения
Вы не можете удалять свои сообщения
Вы не можете голосовать в опросах
Вы не можете прикреплять файлы к сообщениям
Вы можете скачивать файлы