Наталья Синдеева. Ирина Хакамада [2014, Интервью, SATRip] ТК "Дождь"


Статистика раздачи [Обновить пиров]
Размер:  457 MB   |    Зарегистрирован:  1 год   |    Скачан:  0 раз

Полного источника не было: Никогда

Личеров:  2  [  0 KB/s  ]   Подробная статистика пиров
 
   
 
 
 

[Цитировать]

Синдеева.Ирина Хакамада
Дата/Год выпуска: 2014
Страна: Россия
Жанр: Интервью
Продолжительность: 00:39:38
Перевод: Не требуется
Телеканал: Дождь
Описание: Интервью Ирины Хакамады главному редактору и основателю телеканала "Дождь" Наталье Синдеевой.
Сэмпл: http://sendfile.su/1022787
качество: SATRip
формат: AVI
Видео: XVID 640x480 4:3 1 473 Kbps 25.000 fps
Аудио: MP3 128 Kbps 48.0 KHz 2 channels

MediaInfo

Complete name : C:\Users\Bobr5454\Desktop\Sindeeva1.aviFormat : AVIFormat/Info : Audio Video InterleaveFile size : 457 MiBDuration : 39mn 38sOverall bit rate : 1 610 KbpsWriting library : VirtualDub build 35491/release
VideoID : 0Format : MPEG-4 VisualFormat profile : Simple@L3Format settings, BVOP : NoFormat settings, QPel : NoFormat settings, GMC : No warppointsFormat settings, Matrix : Default (H.263)Codec ID : XVIDCodec ID/Hint : XviDDuration : 39mn 38sBit rate : 1 473 KbpsWidth : 640 pixelsHeight : 480 pixelsDisplay aspect ratio : 16:9Frame rate : 25.000 fpsColor space : YUVChroma subsampling : 4:2:0Bit depth : 8 bitsScan type : ProgressiveCompression mode : LossyBits/(Pixel*Frame) : 0.192Stream size : 418 MiB (91%)Writing library : XviD 64
AudioID : 1Format : MPEG AudioFormat version : Version 1Format profile : Layer 3Mode : Joint stereoMode extension : MS StereoCodec ID : 55Codec ID/Hint : MP3Duration : 39mn 38sBit rate mode : ConstantBit rate : 128 KbpsChannel(s) : 2 channelsSampling rate : 48.0 KHzCompression mode : LossyDelay relative to video : 16msStream size : 36.3 MiB (8%)Alignment : Split accross interleavesInterleave, duration : 40 ms (1.00 video frame)Interleave, preload duration : 500 ms

Скриншоты

[teatrix.ru].t11524.torrent 
Торрент: Зарегистрирован [ 2015-12-07 17:45 ] · 340EB149FF6C963CBA411B27DF9848407934F311

Скачать .torrent

Скачать

18 KB

Статус: проверено
Скачан: 0 раз
Размер: 457 MB
terms.php



Быстрый ответ

Имя:

      
Для отправки сообщений необходимо включить JavaScript
Показать сообщения:    

Текущее время: 08-Дек 23:05

Часовой пояс: UTC + 3


Вы можете начинать темы
Вы можете отвечать на сообщения
Вы не можете редактировать свои сообщения
Вы не можете удалять свои сообщения
Вы не можете голосовать в опросах
Вы не можете прикреплять файлы к сообщениям
Вы можете скачивать файлы