Завещание философа Ильина (Алексей Денисов) [2005, Документально-исторический, DVDRip-AVC]


Статистика раздачи [Обновить пиров]
Размер:  920 MB   |    Зарегистрирован:  1 год   |    Скачан:  0 раз

Полного источника не было: Никогда

Личеров:  2  [  0 KB/s  ]   Подробная статистика пиров
 
   
 
 
 

[Цитировать]

Завещание философа Ильина
Дата/Год выпуска: 2005
Страна: Россия
Жанр: Документально-исторический
Продолжительность: 00:49:36
Перевод: Не требуется
Режиссер: Алексей Денисов
Телеканал: телестудия "ИМИ ТВ"
Описание: «Национальные обиды и племенные претензии будут разжигаться снаружи иноземными врагами и своими предателями, давно мечтающими ликвидировать Россию. - писал Иван Ильин, - территория страны закипит бесконечными распрями, столкновениями и гражданскими войнами. Державы всего мира: европейские, азиатские и американские — будут вкладывать свои деньги, свои торговые интересы и свои стратегические расчеты в нововозникшие малые государства. Россия станет мировым «бродилом», в которое будут вливаться социальные и моральные отбросы всех стран: агитаторы, разведчики, спекулянты, миссионеры, все уголовные, политические и конфессиональные авантюристы Вселенной.
Сэмпл: http://multi-up.com/998777
качество: DVDRip
формат: MKV
Видео: AVC, 744x572, 4:3, 25,000 fps, 2396 Кбит/сек
Аудио: русский, AAC-LC, 192 kbps, 48,0 КГц, 2 ch

MediaInfo

ОбщееПолное имя : I:\Завещание философа Ильина (2005) DVDRip [H.264].mkvФормат : MPEG-4Профиль формата : Base Media / Version 2Идентификатор кодека : mp42Размер файла : 920 МбайтПродолжительность : 49 м.Режим общего битрейта : ПеременныйОбщий поток : 2592 Кбит/секДата кодирования : UTC 2014-09-11 05:50:37Дата пометки : UTC 2014-09-11 05:50:37
ВидеоИдентификатор : 1Формат : AVCФормат/Информация : Advanced Video CodecПрофиль формата : Main@L3.1Параметр CABAC формата : ДаПараметр ReFrames формата : 2 кадраПараметр GOP формата : M=3, N=30Идентификатор кодека : avc1Идентификатор кодека/Информация : Advanced Video CodingПродолжительность : 49 м.Вид битрейта : ПеременныйБитрейт : 2396 Кбит/секМаксимальный битрейт : 14,0 Мбит/секШирина : 744 пикселяВысота : 572 пикселяСоотношение сторон : 4:3Режим частоты кадров : ПостоянныйЧастота кадров : 25,000 кадров/секЦветовое пространство : YUVСубдискретизация насыщенности : 4:2:0Битовая глубина : 8 битТип развёртки : ПрогрессивнаяБит/(Пиксели*Кадры) : 0.225Размер потока : 850 Мбайт (92%)Язык : EnglishДата кодирования : UTC 2014-09-11 05:50:37Дата пометки : UTC 2014-09-11 05:50:37
АудиоИдентификатор : 2Формат : AACФормат/Информация : Advanced Audio CodecПрофиль формата : LCИдентификатор кодека : 40Продолжительность : 49 м.Вид битрейта : ПостоянныйБитрейт : 192 Кбит/секКаналы : 2 каналаРасположение каналов : Front: L RЧастота : 48,0 КГцМетод сжатия : С потерямиЗадержка видео : 40 мс.Размер потока : 68,1 Мбайт (7%)Язык : EnglishДата кодирования : UTC 2014-09-11 05:50:37Дата пометки : UTC 2014-09-11 05:50:37

Скриншоты

[teatrix.ru].t11525.torrent 
Торрент: Зарегистрирован [ 2015-12-07 17:45 ] · 345BBF2EEDF5843EE2AB74B2B6D31CFB9FE4EA8C

Скачать .torrent

Скачать

18 KB

Статус: проверено
Скачан: 0 раз
Размер: 920 MB
terms.php



Быстрый ответ

Имя:

      
Для отправки сообщений необходимо включить JavaScript
Показать сообщения:    

Текущее время: 09-Дек 14:35

Часовой пояс: UTC + 3


Вы можете начинать темы
Вы можете отвечать на сообщения
Вы не можете редактировать свои сообщения
Вы не можете удалять свои сообщения
Вы не можете голосовать в опросах
Вы не можете прикреплять файлы к сообщениям
Вы можете скачивать файлы