Пабло Пикассо. Русская муза (Юлий Лурье) [2007, документальный, биографический, DVB]


Статистика раздачи [Обновить пиров]
Размер:  1.4 GB   |    Зарегистрирован:  11 месяцев   |    Скачан:  0 раз

Полного источника не было: Никогда

Личеров:  2  [  0 KB/s  ]   Подробная статистика пиров
 
   
 
 
 

[Цитировать]

Русская муза- Дата/Год выпуска: 2007
Страна: Россия
Жанр: документальный, биографический
Продолжительность: 00:51:41
Перевод: Не требуется
Русские субтитры: нет
Режиссер: Юлий Лурье
Телеканал: Время: далекое и близкоеОписание: В 1917 году, оформляя для Сергея Дягилева балет «Парад» Пабло Пикассо познакомился с балериной из дягилевской труппы Ольгой Хохловой. Модный художник и ловелас увлекся ею так страстно, что Дягилев счел своим долгом предупредить: «Будь осторожен, она русская, а с русскими не шутят, на них женятся!». Пикассо принял правила игры и женился. Сначала они расписались в мэрии 7-го парижского округа, затем обвенчались в церкви Александра Невского. Став музой и моделью великого Пикассо, Ольга так и не смогла стать ему хорошей женой — уж слишком они были разные... Не спасло их брак и рождение ребенка. Но до самой смерти Ольга Хохлова формально оставалась женой Пикассо — горячий испанец думал, что женится первый и последний раз, поэтому в брачном контракте был пункт, что все имущество — общее. В случае развода, пришлось бы делить все, включая картины, а этого гению не хотелось... А Ольга не хотела отпускать Пикассо — до самой своей смерти она бомбардировала его письмами, полными обид и упреков. Ни одного ответа она не дождалась. Не дождалась и последнего «прости» — когда Ольга умерла, Пикассо заканчивал картину «Алжирские женщины» и на похороны не приехал... (анонс канала "Время: далекое и близкое")
Доп. информация: DVB-S

качество: DVB
формат: MKV
Видео: MPEG Video 2, 720x576@768x576 (4:3), 25 fps, ~3621 kbps avg, 0.349 bit/pixel
Аудио: MPEG Audio 2, 2 ch, 48 kHz, ~192.00 kbps avg

MediaInfo

ОбщееУникальный идентификатор : 182222142111950317695954141208730017178 (0x8916B53FA4D7EC82962A0E576E861D9A)Полное имя : E:\My Torrents 2\[apreder]Russian_Muse(2007)DVB.mkvФормат : MatroskaВерсия формата : Version 2Размер файла : 1,40 ГбайтПродолжительность : 51 м.Режим общего битрейта : ПеременныйОбщий поток : 3890 Кбит/секДата кодирования : UTC 2014-09-10 13:47:55Программа кодирования : mkvmerge v7.1.0 ('Good Love') 64bit built on Jul 27 2014 13:06:55Библиотека кодирования : libebml v1.3.0 + libmatroska v1.4.1
ВидеоИдентификатор : 1Формат : MPEG VideoВерсия формата : Version 2Профиль формата : Main@MainПараметр BVOP формата : НетПараметр матрицы формата : ВыборочнаяИдентификатор кодека : V_MPEG2Идентификатор кодека/Информация : MPEG 1 or 2 VideoПродолжительность : 51 м.Вид битрейта : ПеременныйБитрейт : 3621 Кбит/секМаксимальный битрейт : 4501 Кбит/секШирина : 720 пикселейВысота : 576 пикселейСоотношение сторон : 4:3Режим частоты кадров : ПостоянныйЧастота кадров : 25,000 кадров/секСтандарт вещания : PALЦветовое пространство : YUVСубдискретизация насыщенности : 4:2:0Битовая глубина : 8 битТип развёртки : ЧересстрочнаяПорядок развёртки : Верхнее поле первоеМетод сжатия : С потерямиБит/(Пиксели*Кадры) : 0.349Временной код первого кадра : 00:00:00:00Оригинал временного кода : Group of pictures headerРазмер потока : 1,31 Гбайт (93%)Default : ДаForced : Нет
АудиоИдентификатор : 2Формат : MPEG AudioВерсия формата : Version 1Профиль формата : Layer 2Идентификатор кодека : A_MPEG/L2Идентификатор кодека/Подсказка : MP2Продолжительность : 51 м.Вид битрейта : ПостоянныйБитрейт : 192 Кбит/секКаналы : 2 каналаЧастота : 48,0 КГцМетод сжатия : С потерямиРазмер потока : 71,0 Мбайт (5%)Язык : RussianDefault : ДаForced : Нет

Скриншоты


Резервные скриншоты


-[1'711]
[teatrix.ru].t11527.torrent 
Торрент: Зарегистрирован [ 2015-12-07 17:45 ] · BC17EDC7C384AD3AABECBEA9CE7B00F96C26AAFF

Скачать .torrent

Скачать

15 KB

Статус: проверено
Скачан: 0 раз
Размер: 1.4 GB
terms.php



Быстрый ответ

Имя:

      
Для отправки сообщений необходимо включить JavaScript
Показать сообщения:    

Текущее время: 07-Дек 11:40

Часовой пояс: UTC + 3


Вы можете начинать темы
Вы можете отвечать на сообщения
Вы не можете редактировать свои сообщения
Вы не можете удалять свои сообщения
Вы не можете голосовать в опросах
Вы не можете прикреплять файлы к сообщениям
Вы можете скачивать файлы