Ален Делон: Послесловие к передаче Час истины / Alain Delon, L\'heure de Verite - Moyens video legere (Уильям Леймержи / William Leymergie) [1987, документальный, биографический, TVRip-AVC] Original (Fre) + Sub (rus)


Статистика раздачи [Обновить пиров]
Размер:  57 MB   |    Зарегистрирован:  11 месяцев   |    Скачан:  0 раз

Полного источника не было: Никогда

Личеров:  2  [  0 KB/s  ]   Подробная статистика пиров
 
   
 
 
 

[Цитировать]

Ален Делон: Послесловие к передаче "Час истины"
Alain Delon, L'heure de Vérité - Moyens vidéo légère- Дата/Год выпуска: 1987
Страна: Франция
Жанр: документальный, биографический
Продолжительность: 00:04:40
Перевод: Субтитры
Русские субтитры: есть
Формат субтитров: hardsub (неотключаемые)
Доп. информация о субтитрах: перевод Алексей Королев, инициатор Aleks Punk
Оригинальная аудиодорожка: французский
Режиссер: Уильям Леймержи / William Leymergie
Телеканал: inaОписание: Интервью Алена Делон каналу Antenne 2 после передачи "Час истины / L'heure de Vérité" от 7 сентября 1987 года, гостем которой был Раймон Барр, премьер-министр Франции в 1976—1981 годах при президенте республики Валери Жискар д'Эстене, к середине 1980-х годов после ряда неудач социалистов он стал рассматриваться как перспективный кандидат в президенты Франции и одно время даже опережал Миттерана по рейтингу.
Политические взгляды Делона часто вызывали критику: в молодости он был приверженцем Шарля Де Голля, впоследствии стал исповедовать правые взгляды. Делон отвечает на вопросы журналиста Уильяма Леймержи / William Leymergie о том, почему он оказывает поддержку Раймону Барру, которого как политического деятеля сравнивает с генералом де Голлем, и хотел бы видеть его победителем президентской гонки 1988 года.
Доп. информация: За предоставленный материал благодарность Aleks Punk

качество: TVRip
формат: MKV
Видео: AVC (H.264), 608x464 (4:3), 25 fps, ~1500 kbps avg, 0.213 bit/pixel
Аудио: AC3, 2 ch, 44,1 kHz, ~192.00 kbps avg

MediaInfo

Общее
Уникальный идентификатор : 199293863618195789241661596983871941597 (0x95EE9A1A8A9EBFD1B56E9584C36C2BDD)
Полное имя : E:\My Torrents 2\[apreder]Alain_Delon_L'heure_de_Verite_Moyens_video_legere(1987)TVRip.mkv
Формат : Matroska
Версия формата : Version 2
Размер файла : 56,6 Мбайт
Продолжительность : 4 м. 40 с.
Общий поток : 1692 Кбит/сек
Дата кодирования : UTC 2014-09-08 13:33:39
Программа кодирования : mkvmerge v7.1.0 ('Good Love') 64bit built on Jul 27 2014 13:06:55
Библиотека кодирования : libebml v1.3.0 + libmatroska v1.4.1
Видео
Идентификатор : 1
Формат : AVC
Формат/Информация : Advanced Video Codec
Профиль формата : High@L4.1
Параметр CABAC формата : Да
Параметр ReFrames формата : 16 кадров
Идентификатор кодека : V_MPEG4/ISO/AVC
Продолжительность : 4 м. 40 с.
Битрейт : 1500 Кбит/сек
Ширина : 608 пикселей
Высота : 464 пикселя
Соотношение сторон : 4:3
Режим частоты кадров : Постоянный
Частота кадров : 25,000 кадров/сек
Цветовое пространство : YUV
Субдискретизация насыщенности : 4:2:0
Битовая глубина : 8 бит
Тип развёртки : Прогрессивная
Бит/(Пиксели*Кадры) : 0.213
Размер потока : 49,0 Мбайт (87%)
Библиотека кодирования : x264 core 142 r2431 ac76440
Настройки программы : cabac=1 / ref=16 / deblock=1:-1:-1 / analyse=0x3:0x133 / me=umh / subme=10 / psy=1 / psy_rd=1.00:0.15 / mixed_ref=1 / me_range=24 / chroma_me=1 / trellis=2 / 8x8dct=1 / cqm=0 / deadzone=21,11 / fast_pskip=1 / chroma_qp_offset=-3 / threads=6 / lookahead_threads=1 / sliced_threads=0 / nr=0 / decimate=1 / interlaced=0 / bluray_compat=0 / constrained_intra=0 / bframes=8 / b_pyramid=2 / b_adapt=2 / b_bias=0 / direct=3 / weightb=0 / open_gop=0 / weightp=2 / keyint=250 / keyint_min=25 / scenecut=40 / intra_refresh=0 / rc_lookahead=60 / rc=2pass / mbtree=1 / bitrate=1500 / ratetol=1.0 / qcomp=0.60 / qpmin=0 / qpmax=69 / qpstep=4 / cplxblur=20.0 / qblur=0.5 / vbv_maxrate=62500 / vbv_bufsize=78125 / nal_hrd=none / filler=0 / ip_ratio=1.40 / aq=1:1.00
Default : Да
Forced : Нет
Аудио
Идентификатор : 2
Формат : AC-3
Формат/Информация : Audio Coding 3
Расширение режима : CM (complete main)
Параметр Endianness формата : Big
Идентификатор кодека : A_AC3
Продолжительность : 4 м. 40 с.
Вид битрейта : Постоянный
Битрейт : 192 Кбит/сек
Каналы : 2 канала
Расположение каналов : Front: L R
Частота : 44,1 КГц
Битовая глубина : 16 бит
Метод сжатия : С потерями
Размер потока : 6,42 Мбайт (11%)
Язык : French
Default : Да
Forced : Нет

Скриншоты

Резервные скриншоты

-[1'705]
[teatrix.ru].t11529.torrent 
Торрент: Зарегистрирован [ 2015-12-07 17:45 ] · 618B461BD0F7C5383BB3A30E2E6B7A760BACD8B5

Скачать .torrent

Скачать

18 KB

Статус: проверено
Скачан: 0 раз
Размер: 57 MB
terms.php



Быстрый ответ

Имя:

      
Для отправки сообщений необходимо включить JavaScript
Показать сообщения:    

Текущее время: 04-Дек 19:23

Часовой пояс: UTC + 3


Вы можете начинать темы
Вы можете отвечать на сообщения
Вы не можете редактировать свои сообщения
Вы не можете удалять свои сообщения
Вы не можете голосовать в опросах
Вы не можете прикреплять файлы к сообщениям
Вы можете скачивать файлы