Кэтрин Хепберн: Великая Кэйт / Katharine Hepburn: The Great Kate (Rieke Brendel, Andrew Davies) [2014, Документальный, биография, TVRip] Rus Sub


Статистика раздачи [Обновить пиров]
Размер:  612 MB   |    Зарегистрирован:  11 месяцев   |    Скачан:  0 раз

Полного источника не было: Никогда

Личеров:  2  [  0 KB/s  ]   Подробная статистика пиров
 
   
 
 
 

[Цитировать]

Кэтрин Хепберн: Великая Кэйт / Katharine Hepburn: The Great Kate
Год выпуска: 2014
Страна: Германия
Жанр: Документальный, биография
Продолжительность: 00:52:24
Перевод: Субтитры
Русские субтитры: есть
Формат субтитров: hardsub (неотключаемые)
Оригинальная аудиодорожка: английский
Режиссер: Rieke Brendel, Andrew Davies
Телеканал: Аруц 8 (Израиль)
Описание: Документальный фильм посвящен жизни и творчеству Кэтрин Хепберн - американской актрисы, которая была признана Американским институтом кино величайшей актрисой в истории Голливуда. Созданные ею образы многоплановы. 12 номинаций на Оскар и 4 победы в категории "Лучшая актриса", и по сей день является рекордом для любой актрисы, который вряд ли будет повторен в ближайшее время. Показательно, что Хепберн ни разу не участвовала в церемониях вручения Оскаров и лично не принимала статуэток. Кэтрин была женщиной с характером. И продолжала сниматься в характерных ролях, причем даже в 1990-х годах, когда ей было далеко за восемьдесят. Кэтрин надеялась сыграть Скарлетт О`Хара в голливудской экранизации романа «Унесенные ветром». Но роль она не получила. Тогда известный драматург Фил Барри специально для нее написал пьесу «Филадельфийская история». Окончила колледж Брин Мор (выпуск 1928 года), знала несколько языков, заработала медаль на чемпионате по фигурному катанию, была второй теннисисткой штата Миссури и одной из самых многообещающих гольфисток в стране. Кэтрин прожила долгую жизнь и умерла 29 июня 2003 года в возрасте 96 лет. В честь её большого вклада в театральную жизнь страны, вечером 1 июля 2003 года были погашены огни Бродвея. А мы до сих пор с удовольствием смотрим «Филадельфийскую историю» и другие замечательные фильмы, где играла талантливая актриса.
Доп. информация: Запись с канала "Аруц 8". Фильм на английском языке с двойными субтитрами (вшитыми) на русском языке и иврите. Перевод: Людмила Ярошевская. Субтитры: Дори Медиа от ЛТД.
Сэмпл: https://yadi.sk/i/wCfup78BbEkHG
качество: TVRip
формат: AVI
Видео: 1495 Кbps, 704х432 (1.630), 25.000 fps, MPEG-4 Visual (XviD)(Advanced Simple@L5)(BVOP2)
Аудио: 128 Kbps,48.0 KHz, 2 сhannels, MPEG Audio (MP3) (Version 1)(Layer 3)(Joint stereo)
MediaInfo

скрытый текст

General
Complete name : D:\Katharine Hepburn The Great Kate.avi
Format : AVI
Format/Info : Audio Video Interleave
File size : 612 MiB
Duration : 52mn 24s
Overall bit rate : 1 633 Kbps
Writing library : VirtualDub-MPEG2 build 24600/release
Video
ID : 0
Format : MPEG-4 Visual
Format profile : Advanced Simple@L5
Format settings, BVOP : 2
Format settings, QPel : No
Format settings, GMC : No warppoints
Format settings, Matrix : Default (MPEG)
Codec ID : XVID
Codec ID/Hint : XviD
Duration : 52mn 24s
Bit rate : 1 495 Kbps
Width : 704 pixels
Height : 432 pixels
Display aspect ratio : 1.630
Frame rate : 25.000 fps
Color space : YUV
Chroma subsampling : 4:2:0
Bit depth : 8 bits
Scan type : Progressive
Compression mode : Lossy
Bits/(Pixel*Frame) : 0.197
Stream size : 560 MiB (92%)
Writing library : XviD 58
Audio
ID : 1
Format : MPEG Audio
Format version : Version 1
Format profile : Layer 3
Mode : Joint stereo
Mode extension : MS Stereo
Codec ID : 55
Codec ID/Hint : MP3
Duration : 52mn 24s
Bit rate mode : Constant
Bit rate : 128 Kbps
Channel(s) : 2 channels
Sampling rate : 48.0 KHz
Compression mode : Lossy
Stream size : 48.0 MiB (8%)
Alignment : Split accross interleaves
Interleave, duration : 40 ms (1.00 video frame)
Interleave, preload duration : 500 ms

Скриншоты

[teatrix.ru].t11530.torrent 
Торрент: Зарегистрирован [ 2015-12-07 17:45 ] · 4DFAF976718236B09FC97689ECAF307213259E5C

Скачать .torrent

Скачать

1 KB

Статус: проверено
Скачан: 0 раз
Размер: 612 MB
terms.php



Быстрый ответ

Имя:

      
Для отправки сообщений необходимо включить JavaScript
Показать сообщения:    

Текущее время: 05-Дек 15:34

Часовой пояс: UTC + 3


Вы можете начинать темы
Вы можете отвечать на сообщения
Вы не можете редактировать свои сообщения
Вы не можете удалять свои сообщения
Вы не можете голосовать в опросах
Вы не можете прикреплять файлы к сообщениям
Вы можете скачивать файлы