Говард Зинн: ты не можешь быть нейтральным в движущемся поезде / Howard Zinn: You Can\'t Be Neutral on a Moving Train (Деб Эллис, Дэнис Мюллер / Deb Ellis, Denis Mueller) [2004, Документальный фильм, биография, DVDRip-AVC]


Статистика раздачи [Обновить пиров]
Размер:  1.28 GB   |    Зарегистрирован:  1 год   |    Скачан:  0 раз

Полного источника не было: Никогда

Личеров:  2  [  0 KB/s  ]   Подробная статистика пиров
 
   
 
 
 

[Цитировать]

Говард Зинн : ты не можешь быть нейтральным в движущемся поезде / Howard Zinn: You Can't Be Neutral on a Moving Train [2004, Документальный фильм, биография, DVDRip-AVC]
Дата/Год выпуска: 2004
Страна: США
Жанр: Документальный фильм, биография
Продолжительность: 1:17:28
Перевод: Субтитры
Русские субтитры: есть
Формат субтитров: softsub (SRT)
Доп. информация о субтитрах: Дополнительной дорожкой выложен перевод надписей
Оригинальная аудиодорожка: английский
Режиссер: Deb Ellis, Denis MuellerОписание: Это история жизни Говарда Зинна (24.08.1922 — 27.01.2010) - американского историка, писателя и драматурга. Автора классической работы "Народная история США: с 1492 года до наших дней". В фокусе внимания Зинна жизни простых американцев. Работа описывает историю США, написанную совсем под другим углом зрения, начиная от открытия Америки Колумбом и заканчивая современным этапом «борьбы с терроризмом».
В противовес официальной версии «истории президентов и генералов», Зинн обращает внимание на те аспекты, которые не всегда адекватно освещаются мейнстримом американской исторической науки, а через этапы его жизни, показанные в фильме, отражена частичка истории XX века.
В фильме использованы архивные видеосъемки, воспоминания друзей, коллег и самого Зинна. Закадровый текст читает актёр Мэтт Деймон.
Сэмпл: http://sendfile.su/1020210
качество: DVDRip
формат: MKV
Видео: AVC, 512х324, 4:3, 2137 kbps, 29,970 fps
Аудио: АС3, 224 Кбит/сек, 48,0 КГц, 2 канала

MediaInfo

ОбщееУникальный идентификатор : 26957016483137038478934953041127945662 (0x1447BB86CC935BFC225A8662D39235BE)Полное имя : Howard Zinn - You Can`t Be Neutral on a Moving Train.mkvФормат : MatroskaВерсия формата : Version 4 / Version 2Размер файла : 1,28 ГбайтПродолжительность : 1 ч. 17 м.Общий поток : 2363 Кбит/секДата кодирования : UTC 2014-09-08 08:57:49Программа кодирования : mkvmerge v7.1.0 ('Good Love') 64bit built on Jul 27 2014 13:10:18Библиотека кодирования : libebml v1.3.0 + libmatroska v1.4.1DURATION : 01:14:23.160000000NUMBER_OF_FRAMES : 83NUMBER_OF_BYTES : 8212_STATISTICS_WRITING_APP : mkvmerge v7.1.0 ('Good Love') 64bit built on Jul 27 2014 13:10:18_STATISTICS_WRITING_DATE_UTC : 2014-09-08 08:57:49_STATISTICS_TAGS : BPS DURATION NUMBER_OF_FRAMES NUMBER_OF_BYTES
ВидеоИдентификатор : 1Формат : AVCФормат/Информация : Advanced Video CodecПрофиль формата : High@L3.1Параметр CABAC формата : ДаПараметр ReFrames формата : 16 кадровИдентификатор кодека : V_MPEG4/ISO/AVCПродолжительность : 1 ч. 17 м.Битрейт : 2137 Кбит/секШирина : 512 пикселейВысота : 384 пикселяСоотношение сторон : 4:3Режим частоты кадров : ПостоянныйЧастота кадров : 29,970 кадров/секЦветовое пространство : YUVСубдискретизация насыщенности : 4:2:0Битовая глубина : 8 битТип развёртки : ПрогрессивнаяБит/(Пиксели*Кадры) : 0.363Размер потока : 1,13 Гбайт (89%)Библиотека кодирования : x264 core 138 r2358 9e941d1Настройки программы : cabac=1 / ref=16 / deblock=1:0:0 / analyse=0x3:0x133 / me=umh / subme=10 / psy=1 / psy_rd=1.00:0.00 / mixed_ref=1 / me_range=24 / chroma_me=1 / trellis=2 / 8x8dct=1 / cqm=0 / deadzone=21,11 / fast_pskip=1 / chroma_qp_offset=-2 / threads=3 / lookahead_threads=1 / sliced_threads=0 / nr=0 / decimate=1 / interlaced=0 / bluray_compat=0 / constrained_intra=0 / bframes=8 / b_pyramid=2 / b_adapt=2 / b_bias=0 / direct=3 / weightb=1 / open_gop=0 / weightp=2 / keyint=300 / keyint_min=29 / scenecut=40 / intra_refresh=0 / rc_lookahead=60 / rc=2pass / mbtree=1 / bitrate=2137 / ratetol=1.0 / qcomp=0.60 / qpmin=0 / qpmax=69 / qpstep=4 / cplxblur=20.0 / qblur=0.5 / ip_ratio=1.40 / aq=1:1.00Default : ДаForced : Нет
АудиоИдентификатор : 2Формат : AC-3Формат/Информация : Audio Coding 3Расширение режима : CM (complete main)Параметр Endianness формата : BigИдентификатор кодека : A_AC3Продолжительность : 1 ч. 17 м.Вид битрейта : ПостоянныйБитрейт : 224 Кбит/секКаналы : 2 каналаРасположение каналов : Front: L RЧастота : 48,0 КГцБитовая глубина : 16 битМетод сжатия : С потерямиРазмер потока : 124 Мбайт (9%)Язык : EnglishDefault : ДаForced : Нет
Текст #1Идентификатор : 3Формат : UTF-8Идентификатор кодека : S_TEXT/UTF8Идентификатор кодека/Информация : UTF-8 Plain TextЗаголовок : You Cant Be Neutral on a Moving TrainЯзык : RussianDefault : ДаForced : Да
Текст #2Идентификатор : 4Формат : UTF-8Идентификатор кодека : S_TEXT/UTF8Идентификатор кодека/Информация : UTF-8 Plain TextЗаголовок : НадписиЯзык : RussianDefault : НетForced : Нет

Скриншоты

[teatrix.ru].t11531.torrent 
Торрент: Зарегистрирован [ 2015-12-07 17:45 ] · 2533D4AD6913D6570C23A0843DC6F51AF4E4CFC3

Скачать .torrent

Скачать

13 KB

Статус: проверено
Скачан: 0 раз
Размер: 1.28 GB
terms.php



Быстрый ответ

Имя:

      
Для отправки сообщений необходимо включить JavaScript
Показать сообщения:    

Текущее время: 10-Дек 17:47

Часовой пояс: UTC + 3


Вы можете начинать темы
Вы можете отвечать на сообщения
Вы не можете редактировать свои сообщения
Вы не можете удалять свои сообщения
Вы не можете голосовать в опросах
Вы не можете прикреплять файлы к сообщениям
Вы можете скачивать файлы