Стив Маккуин / I Am Steve McQueen (Джефф Ренфро / Jeff Renfroe) [2014, Документальный, биография, история, HDTVRip]


Статистика раздачи [Обновить пиров]
Размер:  1.37 GB   |    Зарегистрирован:  1 год   |    Скачан:  0 раз

Полного источника не было: Никогда

Личеров:  2  [  0 KB/s  ]   Подробная статистика пиров
 
   
 
 
 

[Цитировать]

Стив Маккуин / I Am Steve McQueen
Дата/Год выпуска: 2014
Страна: США
Жанр: Документальный, биография, история
Продолжительность: 01:25:45
Перевод: Профессиональный (многоголосый закадровый)
Доп. инфо о переводе: 1 канал
Русские субтитры: нет
Оригинальная аудиодорожка: нет
Режиссер: Джефф Ренфро / Jeff Renfroe
Телеканал: Первый HD
Описание: Стив Маккуин – одна из ярчайших кинозвезд Голливуда прошлых лет. Мужественный вид, магнетизм "плохого парня" и сногсшибательная харизма выделяли Маккуина среди коллег по цеху. Стив вырос в маленьком городке в пригороде Индианаполиса, служил в морской пехоте США и стал одним из самых высокооплачиваемых и востребованных актеров своего поколения. Широкой публике он был известен как бунтарь, не преклонявшийся ни перед какой властью, и "король крутизны", жизнь которого напоминала равнобедренный треугольник, сторонами которого являлись – женщины, сигареты и автомобили. В фильме собраны оригинальные интервью, включая редкое интервью с самим Маккуином, отрывки из его лучших фильмов, а также архивные записи. Картина расскажет об удивительной судьбе легендарного актера, гонщика и кумира миллионов, уделив особое внимание соответствию между его экранным образом и жизнью за кулисами.
Доп. информация: Из видеоряда удален логотип телеканала, остались послерекламные вставки с названием фильма.
Сэмпл: http://multi-up.com/997160
качество: HDTVRip
формат: AVI
Видео: MPEG4, XviD, 720x400 (16/9), 25.000 fps, 2 085 Kbps (0.290 bit/pixel)
Аудио: AC-3, 48.0 KHz, 2 ch, 192 Kbps, CBR

MediaInfo

ОбщееПолное имя : K:\Стив Маккуин.aviФормат : AVIФормат/Информация : Audio Video InterleaveРазмер файла : 1,37 ГбайтПродолжительность : 1 ч. 25 м.Общий поток : 2287 Кбит/секНазвание фильма : Стив Маккуин / I Am Steve McQueen (2014)Программа кодирования : VirtualDubMod 1.5.10.2 (build 2540/release)Библиотека кодирования : VirtualDubMod build 2540/releaseПравообладатель : miha2154
ВидеоИдентификатор : 0Формат : MPEG-4 VisualПрофиль формата : Advanced Simple@L5Параметр BVOP формата : 1Параметр QPel формата : НетПараметр GMC формата : Без точки переходаПараметр матрицы формата : ВыборочнаяИдентификатор кодека : XVIDИдентификатор кодека/Подсказка : XviDПродолжительность : 1 ч. 25 м.Битрейт : 2085 Кбит/секШирина : 720 пикселейВысота : 400 пикселейСоотношение сторон : 16:9Частота кадров : 25,000 кадров/секЦветовое пространство : YUVСубдискретизация насыщенности : 4:2:0Битовая глубина : 8 битТип развёртки : ПрогрессивнаяМетод сжатия : С потерямиБит/(Пиксели*Кадры) : 0.290Размер потока : 1,25 Гбайт (91%)Библиотека кодирования : XviD 65
АудиоИдентификатор : 1Формат : AC-3Формат/Информация : Audio Coding 3Расширение режима : CM (complete main)Параметр Endianness формата : BigИдентификатор кодека : 2000Продолжительность : 1 ч. 25 м.Вид битрейта : ПостоянныйБитрейт : 192 Кбит/секКаналы : 2 каналаРасположение каналов : Front: L RЧастота : 48,0 КГцБитовая глубина : 16 битМетод сжатия : С потерямиРазмер потока : 118 Мбайт (8%)Выравнивание : Разделение по промежуткамПродолжительность промежутка : 40 мс. (1,00 видеокадр)Время предзагрузки промежутка : 500 мс.Заголовок : Профессиональный (многоголосый закадровый) 1 канал

Скриншоты

[teatrix.ru].t11533.torrent 
Торрент: Зарегистрирован [ 2015-12-07 17:45 ] · 5DF99B47C0AB57EE178860E666E54D8D565ADF0B

Скачать .torrent

Скачать

14 KB

Статус: проверено
Скачан: 0 раз
Размер: 1.37 GB
terms.php



Быстрый ответ

Имя:

      
Для отправки сообщений необходимо включить JavaScript
Показать сообщения:    

Текущее время: 08-Дек 01:17

Часовой пояс: UTC + 3


Вы можете начинать темы
Вы можете отвечать на сообщения
Вы не можете редактировать свои сообщения
Вы не можете удалять свои сообщения
Вы не можете голосовать в опросах
Вы не можете прикреплять файлы к сообщениям
Вы можете скачивать файлы