Махмуд Эсамбаев: Портрет артиста (4 выпуска) [2011, документальный, балет, народные танцы, хореография, DVDRip]


Статистика раздачи [Обновить пиров]
Размер:  2.05 GB   |    Зарегистрирован:  1 год   |    Скачан:  0 раз

Полного источника не было: 6 месяцев 21 день

Личеров:  2  [  0 KB/s  ]   Подробная статистика пиров
 
   
 
 
 

[Цитировать]

Махмуд Эсамбаев: Портрет артиста- -Год выпуска: 2011
Страна: Россия
Жанр: документальный, балет, народные танцы, хореография
Продолжительность: 02:42:50
Перевод: Не требуется-Описание:
Махму́д Алисулта́нович Эсамба́ев (15 июля 1924 — 7 января 2000) — советский чеченский артист балета, эстрадный танцовщик, хореограф, актёр. Народный артист СССР (1974). Герой Социалистического Труда (1984). Эсамбаев — создатель первой сольной танцевальной программы в СССР «Танцы народов мира». Исполнил огромное количество самых разнообразных танцев: «Чабан» (чечено-ингушский, узбекский), «Воин» (башкирский), «Золотой бог» (индийский), ритуальный «Танец огня» на музыку де Фальи, «Ля-коррида» (испанский), «Танец с ножами» (таджикский) и др. В сборник вошли документальные фильмы телевидения СССР о Народном артисте СССР Махмуде Эсамбаеве, его интервью, размышления, рассказы о творческом пути. В концертных программах вы увидите в его исполнении танцы народов мира.-

Содержание

В сборник вошли документальные фильмы телевидения СССР о Народном артисте СССР Махмуде Эсамбаеве, его интервью, размышления, рассказы о творческом пути. В концертных программах вы увидите в его исполнении танцы народов мира.
1. Махмуд Эсамбаев
2. Народный артист РСФСР Махмуд Эсамбаев
3. Вокруг да около С Махмудом Эсамбаевым
4. Театр Махмуда Эсамбаева
-Качество: DVDRip
Формат: AVI
Видео кодек: XviD
Аудио кодек: AC3-Видео: 704x528 (1.33:1), 25 fps, XviD build 50 ~1600 kbps avg, 0.17 bit/pixel
Аудио: 48 kHz, AC3 Dolby Digital, 2/0 (L,R) ch, ~192.00 kbps avg
-

MediaInfo

General
Complete name : F:\Махмуд Эсамбаев Портрет артиста DVDRip\Махмуд Эсамбаев.avi
Format : AVI
Format/Info : Audio Video Interleave
File size : 531 MiB
Duration : 41mn 11s
Overall bit rate : 1 803 Kbps
Writing application : VirtualDubMod 1.5.10.2 (build 2540/release)
Writing library : VirtualDubMod build 2540/release
Video
ID : 0
Format : MPEG-4 Visual
Format profile : Advanced Simple@L5
Format settings, BVOP : 1
Format settings, QPel : No
Format settings, GMC : No warppoints
Format settings, Matrix : Custom
Codec ID : XVID
Codec ID/Hint : XviD
Duration : 41mn 11s
Bit rate : 1 601 Kbps
Width : 704 pixels
Height : 528 pixels
Display aspect ratio : 4:3
Frame rate : 25.000 fps
Color space : YUV
Chroma subsampling : 4:2:0
Bit depth : 8 bits
Scan type : Progressive
Compression mode : Lossy
Bits/(Pixel*Frame) : 0.172
Stream size : 472 MiB (89%)
Writing library : XviD 1.2.1 (UTC 2008-12-04)
Audio
ID : 1
Format : AC-3
Format/Info : Audio Coding 3
Mode extension : CM (complete main)
Format settings, Endianness : Big
Codec ID : 2000
Duration : 41mn 11s
Bit rate mode : Constant
Bit rate : 192 Kbps
Channel(s) : 2 channels
Channel positions : Front: L R
Sampling rate : 48.0 KHz
Bit depth : 16 bits
Compression mode : Lossy
Stream size : 56.6 MiB (11%)
Alignment : Split accross interleaves
Interleave, duration : 40 ms (1.00 video frame)
Interleave, preload duration : 500 ms

Скриншоты фильма




Ковры

-Раздаю до первых 5-ти скачавших, на раздачи не возвращаюсь...-
[teatrix.ru].t11534.torrent 
Торрент: Зарегистрирован [ 2015-12-07 17:45 ] · C3F202108A673050A97B596F6432BD56F1C8BC83

Скачать .torrent

Скачать

11 KB

Статус: проверено
Скачан: 0 раз
Размер: 2.05 GB
terms.php



Быстрый ответ

Имя:

      
Для отправки сообщений необходимо включить JavaScript
Показать сообщения:    

Текущее время: 11-Дек 03:16

Часовой пояс: UTC + 3


Вы можете начинать темы
Вы можете отвечать на сообщения
Вы не можете редактировать свои сообщения
Вы не можете удалять свои сообщения
Вы не можете голосовать в опросах
Вы не можете прикреплять файлы к сообщениям
Вы можете скачивать файлы